  0
SECTION
  2
HEADER
  9
$ACADVER
  1
AC1015
  9
$ACADMAINTVER
 70
    20
  9
$DWGCODEPAGE
  3
ANSI_932
  9
$INSBASE
 10
0.0
 20
0.0
 30
0.0
  9
$EXTMIN
 10
-204.965838913244
 20
-3929.523724383421
 30
0.0
  9
$EXTMAX
 10
363.4868902526758
 20
-270.9371161697541
 30
0.0
  9
$LIMMIN
 10
0.0
 20
0.0
  9
$LIMMAX
 10
420.0
 20
297.0
  9
$ORTHOMODE
 70
     1
  9
$REGENMODE
 70
     1
  9
$FILLMODE
 70
     1
  9
$QTEXTMODE
 70
     0
  9
$MIRRTEXT
 70
     1
  9
$LTSCALE
 40
1.0
  9
$ATTMODE
 70
     1
  9
$TEXTSIZE
 40
2.5
  9
$TRACEWID
 40
1.0
  9
$TEXTSTYLE
  7
KANJI
  9
$CLAYER
  8
1外形線
  9
$CELTYPE
  6
BYLAYER
  9
$CECOLOR
 62
   256
  9
$CELTSCALE
 40
3.0
  9
$DISPSILH
 70
     0
  9
$DIMSCALE
 40
0.0
  9
$DIMASZ
 40
1.8
  9
$DIMEXO
 40
0.5
  9
$DIMDLI
 40
0.0
  9
$DIMRND
 40
0.0
  9
$DIMDLE
 40
0.0
  9
$DIMEXE
 40
1.0
  9
$DIMTP
 40
0.0
  9
$DIMTM
 40
0.0
  9
$DIMTXT
 40
3.0
  9
$DIMCEN
 40
0.0
  9
$DIMTSZ
 40
0.0
  9
$DIMTOL
 70
     0
  9
$DIMLIM
 70
     0
  9
$DIMTIH
 70
     0
  9
$DIMTOH
 70
     0
  9
$DIMSE1
 70
     0
  9
$DIMSE2
 70
     0
  9
$DIMTAD
 70
     1
  9
$DIMZIN
 70
     8
  9
$DIMBLK
  1

  9
$DIMASO
 70
     1
  9
$DIMSHO
 70
     1
  9
$DIMPOST
  1

  9
$DIMAPOST
  1

  9
$DIMALT
 70
     0
  9
$DIMALTD
 70
     2
  9
$DIMALTF
 40
25.4
  9
$DIMLFAC
 40
1.0
  9
$DIMTOFL
 70
     1
  9
$DIMTVP
 40
0.0
  9
$DIMTIX
 70
     0
  9
$DIMSOXD
 70
     0
  9
$DIMSAH
 70
     1
  9
$DIMBLK1
  1
2
  9
$DIMBLK2
  1
2
  9
$DIMSTYLE
  2
M
  9
$DIMCLRD
 70
     0
  9
$DIMCLRE
 70
     0
  9
$DIMCLRT
 70
     0
  9
$DIMTFAC
 40
1.0
  9
$DIMGAP
 40
0.5
  9
$DIMJUST
 70
     0
  9
$DIMSD1
 70
     0
  9
$DIMSD2
 70
     0
  9
$DIMTOLJ
 70
     1
  9
$DIMTZIN
 70
     8
  9
$DIMALTZ
 70
     0
  9
$DIMALTTZ
 70
     0
  9
$DIMUPT
 70
     0
  9
$DIMDEC
 70
     4
  9
$DIMTDEC
 70
     4
  9
$DIMALTU
 70
     2
  9
$DIMALTTD
 70
     2
  9
$DIMTXSTY
  7
KANJI
  9
$DIMAUNIT
 70
     0
  9
$DIMADEC
 70
     0
  9
$DIMALTRND
 40
0.0
  9
$DIMAZIN
 70
     0
  9
$DIMDSEP
 70
    46
  9
$DIMATFIT
 70
     3
  9
$DIMFRAC
 70
     0
  9
$DIMLDRBLK
  1
2
  9
$DIMLUNIT
 70
     2
  9
$DIMLWD
 70
    -2
  9
$DIMLWE
 70
    -2
  9
$DIMTMOVE
 70
     0
  9
$LUNITS
 70
     2
  9
$LUPREC
 70
     3
  9
$SKETCHINC
 40
1.0
  9
$FILLETRAD
 40
0.0
  9
$AUNITS
 70
     0
  9
$AUPREC
 70
     1
  9
$MENU
  1
.
  9
$ELEVATION
 40
0.0
  9
$PELEVATION
 40
0.0
  9
$THICKNESS
 40
0.0
  9
$LIMCHECK
 70
     0
  9
$CHAMFERA
 40
10.0
  9
$CHAMFERB
 40
10.0
  9
$CHAMFERC
 40
20.0
  9
$CHAMFERD
 40
0.0
  9
$SKPOLY
 70
     0
  9
$TDCREATE
 40
2453117.578716192
  9
$TDUCREATE
 40
2453117.203716192
  9
$TDUPDATE
 40
2456598.722399387
  9
$TDUUPDATE
 40
2456598.347399387
  9
$TDINDWG
 40
1.5484023958
  9
$TDUSRTIMER
 40
1.5483756250
  9
$USRTIMER
 70
     1
  9
$ANGBASE
 50
0.0
  9
$ANGDIR
 70
     0
  9
$PDMODE
 70
     0
  9
$PDSIZE
 40
0.0
  9
$PLINEWID
 40
0.0
  9
$SPLFRAME
 70
     0
  9
$SPLINETYPE
 70
     6
  9
$SPLINESEGS
 70
     8
  9
$HANDSEED
  5
1F5E4
  9
$SURFTAB1
 70
     6
  9
$SURFTAB2
 70
     6
  9
$SURFTYPE
 70
     6
  9
$SURFU
 70
     6
  9
$SURFV
 70
     6
  9
$UCSBASE
  2

  9
$UCSNAME
  2

  9
$UCSORG
 10
0.0
 20
0.0
 30
0.0
  9
$UCSXDIR
 10
1.0
 20
0.0
 30
0.0
  9
$UCSYDIR
 10
0.0
 20
1.0
 30
0.0
  9
$UCSORTHOREF
  2

  9
$UCSORTHOVIEW
 70
     0
  9
$UCSORGTOP
 10
0.0
 20
0.0
 30
0.0
  9
$UCSORGBOTTOM
 10
0.0
 20
0.0
 30
0.0
  9
$UCSORGLEFT
 10
0.0
 20
0.0
 30
0.0
  9
$UCSORGRIGHT
 10
0.0
 20
0.0
 30
0.0
  9
$UCSORGFRONT
 10
0.0
 20
0.0
 30
0.0
  9
$UCSORGBACK
 10
0.0
 20
0.0
 30
0.0
  9
$PUCSBASE
  2

  9
$PUCSNAME
  2

  9
$PUCSORG
 10
0.0
 20
0.0
 30
0.0
  9
$PUCSXDIR
 10
1.0
 20
0.0
 30
0.0
  9
$PUCSYDIR
 10
0.0
 20
1.0
 30
0.0
  9
$PUCSORTHOREF
  2

  9
$PUCSORTHOVIEW
 70
     0
  9
$PUCSORGTOP
 10
0.0
 20
0.0
 30
0.0
  9
$PUCSORGBOTTOM
 10
0.0
 20
0.0
 30
0.0
  9
$PUCSORGLEFT
 10
0.0
 20
0.0
 30
0.0
  9
$PUCSORGRIGHT
 10
0.0
 20
0.0
 30
0.0
  9
$PUCSORGFRONT
 10
0.0
 20
0.0
 30
0.0
  9
$PUCSORGBACK
 10
0.0
 20
0.0
 30
0.0
  9
$USERI1
 70
     0
  9
$USERI2
 70
     0
  9
$USERI3
 70
     0
  9
$USERI4
 70
     0
  9
$USERI5
 70
     0
  9
$USERR1
 40
0.0
  9
$USERR2
 40
0.0
  9
$USERR3
 40
0.0
  9
$USERR4
 40
0.0
  9
$USERR5
 40
0.0
  9
$WORLDVIEW
 70
     1
  9
$SHADEDGE
 70
     3
  9
$SHADEDIF
 70
    70
  9
$TILEMODE
 70
     1
  9
$MAXACTVP
 70
    48
  9
$PINSBASE
 10
0.0
 20
0.0
 30
0.0
  9
$PLIMCHECK
 70
     0
  9
$PEXTMIN
 10
26.66999878883363
 20
20.31999878883363
 30
0.0
  9
$PEXTMAX
 10
240.0299890995026
 20
182.8799890995025
 30
0.0
  9
$PLIMMIN
 10
0.0
 20
0.0
  9
$PLIMMAX
 10
420.0
 20
297.0
  9
$UNITMODE
 70
     0
  9
$VISRETAIN
 70
     1
  9
$PLINEGEN
 70
     0
  9
$PSLTSCALE
 70
     1
  9
$TREEDEPTH
 70
  3020
  9
$CMLSTYLE
  2
STANDARD
  9
$CMLJUST
 70
     0
  9
$CMLSCALE
 40
20.0
  9
$PROXYGRAPHICS
 70
     1
  9
$MEASUREMENT
 70
     1
  9
$CELWEIGHT
370
    -1
  9
$ENDCAPS
280
     0
  9
$JOINSTYLE
280
     0
  9
$LWDISPLAY
290
     0
  9
$INSUNITS
 70
     0
  9
$HYPERLINKBASE
  1

  9
$STYLESHEET
  1
INABA-CAD-CANON.CTB
  9
$XEDIT
290
     1
  9
$CEPSNTYPE
380
     0
  9
$PSTYLEMODE
290
     1
  9
$FINGERPRINTGUID
  2
{BA809DA8-F26D-4977-B9E7-E5C6E8D42094}
  9
$VERSIONGUID
  2
{42E3A235-2B32-418B-B02E-7DBC25349DDF}
  9
$EXTNAMES
290
     1
  9
$PSVPSCALE
 40
0.0
  9
$OLESTARTUP
290
     0
  0
ENDSEC
  0
SECTION
  2
CLASSES
  0
CLASS
  1
HATCH
  2
AcDbHatch
  3
ObjectDBX Classes
 90
        0
280
     0
281
     1
  0
CLASS
  1
DICTIONARYVAR
  2
AcDbDictionaryVar
  3
ObjectDBX Classes
 90
        0
280
     0
281
     0
  0
CLASS
  1
LWPOLYLINE
  2
AcDbPolyline
  3
ObjectDBX Classes
 90
        0
280
     0
281
     1
  0
CLASS
  1
ACDBDICTIONARYWDFLT
  2
AcDbDictionaryWithDefault
  3
ObjectDBX Classes
 90
        0
280
     0
281
     0
  0
CLASS
  1
ACDBPLACEHOLDER
  2
AcDbPlaceHolder
  3
ObjectDBX Classes
 90
        0
280
     0
281
     0
  0
CLASS
  1
LAYOUT
  2
AcDbLayout
  3
ObjectDBX Classes
 90
        0
280
     0
281
     0
  0
CLASS
  1
LONG_TRANSACTION
  2
AcDbLongTransaction
  3
ObjectDBX Classes
 90
    32768
280
     0
281
     0
  0
CLASS
  1
LWPOLYLINE
  2
AcDbPolyline
  3
ObjectDBX Classes
 90
        0
280
     0
281
     1
  0
CLASS
  1
HATCH
  2
AcDbHatch
  3
ObjectDBX Classes
 90
        0
280
     0
281
     1
  0
CLASS
  1
XRECORD
  2
AcDbXrecord
  3
ObjectDBX Classes
 90
        0
280
     0
281
     0
  0
CLASS
  1
MATERIAL
  2
AcDbMaterial
  3
ObjectDBX Classes
 90
        0
280
     0
281
     0
  0
CLASS
  1
VISUALSTYLE
  2
AcDbVisualStyle
  3
ObjectDBX Classes
 90
     4095
280
     0
281
     0
  0
CLASS
  1
TABLESTYLE
  2
AcDbTableStyle
  3
ObjectDBX Classes
 90
     2047
280
     0
281
     0
  0
CLASS
  1
ACAD_PROXY_OBJECT_WRAPPER
  2
AcDbProxyObjectWrapper
  3
ObjectDBX Classes
 90
    32768
280
     0
281
     0
  0
CLASS
  1
LONG_TRANSACTION
  2
AcDbLongTransaction
  3
ObjectDBX Classes
 90
    32768
280
     0
281
     0
  0
CLASS
  1
LWPOLYLINE
  2
AcDbPolyline
  3
ObjectDBX Classes
 90
        0
280
     0
281
     1
  0
CLASS
  1
HATCH
  2
AcDbHatch
  3
ObjectDBX Classes
 90
        0
280
     0
281
     1
  0
CLASS
  1
XRECORD
  2
AcDbXrecord
  3
ObjectDBX Classes
 90
        0
280
     0
281
     0
  0
CLASS
  1
SORTENTSTABLE
  2
AcDbSortentsTable
  3
ObjectDBX Classes
 90
        0
280
     0
281
     0
  0
CLASS
  1
SCALE
  2
AcDbScale
  3
ObjectDBX Classes
 90
     1153
280
     0
281
     0
  0
CLASS
  1
MLEADERSTYLE
  2
AcDbMLeaderStyle
  3
ACDB_MLEADERSTYLE_CLASS
 90
     4095
280
     0
281
     0
  0
CLASS
  1
CELLSTYLEMAP
  2
AcDbCellStyleMap
  3
ObjectDBX Classes
 90
     1152
280
     0
281
     0
  0
ENDSEC
  0
SECTION
  2
TABLES
  0
TABLE
  2
VPORT
  5
8
102
{ACAD_XDICTIONARY
360
5734
102
}
330
0
100
AcDbSymbolTable
 70
     2
  0
VPORT
  5
1F5DD
330
8
100
AcDbSymbolTableRecord
100
AcDbViewportTableRecord
  2
*Active
 70
     0
 10
0.0
 20
0.0
 11
1.0
 21
1.0
 12
319.5087968261632
 22
-3849.413670251014
 13
0.0
 23
0.0
 14
10.0
 24
10.0
 15
10.0
 25
10.0
 16
0.0
 26
0.0
 36
1.0
 17
0.0
 27
0.0
 37
0.0
 40
934.3344522776027
 41
1.386243386243386
 42
50.0
 43
0.0
 44
0.0
 50
0.0
 51
0.0
 71
     0
 72
   100
 73
     1
 74
     1
 75
     0
 76
     1
 77
     0
 78
     0
281
     0
 65
     1
110
0.0
120
0.0
130
0.0
111
1.0
121
0.0
131
0.0
112
0.0
122
1.0
132
0.0
 79
     0
146
0.0
  0
ENDTAB
  0
TABLE
  2
LTYPE
  5
5
330
0
100
AcDbSymbolTable
 70
     1
  0
LTYPE
  5
12
330
5
100
AcDbSymbolTableRecord
100
AcDbLinetypeTableRecord
  2
BYBLOCK
 70
     0
  3

 72
    65
 73
     0
 40
0.0
  0
LTYPE
  5
13
330
5
100
AcDbSymbolTableRecord
100
AcDbLinetypeTableRecord
  2
BYLAYER
 70
     0
  3

 72
    65
 73
     0
 40
0.0
  0
LTYPE
  5
14
330
5
100
AcDbSymbolTableRecord
100
AcDbLinetypeTableRecord
  2
CONTINUOUS
 70
     0
  3
Solid line
 72
    65
 73
     0
 40
0.0
  0
ENDTAB
  0
TABLE
  2
LAYER
  5
2
102
{ACAD_XDICTIONARY
360
56EE
102
}
330
0
100
AcDbSymbolTable
 70
     6
  0
LAYER
  5
E
102
{ACAD_XDICTIONARY
360
C7F2
102
}
330
2
100
AcDbSymbolTableRecord
100
AcDbLayerTableRecord
  2
0
 70
     0
 62
     7
  6
CONTINUOUS
370
    -3
390
5653
  0
LAYER
  5
20
102
{ACAD_XDICTIONARY
360
C7F4
102
}
330
2
100
AcDbSymbolTableRecord
100
AcDbLayerTableRecord
  2
1外形線
 70
     0
 62
     3
  6
CONTINUOUS
370
    -3
390
5653
  0
LAYER
  5
21
102
{ACAD_XDICTIONARY
360
C7F6
102
}
330
2
100
AcDbSymbolTableRecord
100
AcDbLayerTableRecord
  2
2寸法線
 70
     0
 62
     2
  6
CONTINUOUS
370
    -3
390
5653
  0
LAYER
  5
23
102
{ACAD_XDICTIONARY
360
C7FA
102
}
330
2
100
AcDbSymbolTableRecord
100
AcDbLayerTableRecord
  2
4太線
 70
     0
 62
    -6
  6
CONTINUOUS
370
    -3
390
5653
  0
LAYER
  5
94
330
2
100
AcDbSymbolTableRecord
100
AcDbLayerTableRecord
  2
DEFPOINTS
 70
     0
 62
     7
  6
CONTINUOUS
290
     0
370
    -3
390
5653
  0
LAYER
  5
48B
102
{ACAD_XDICTIONARY
360
C800
102
}
330
2
100
AcDbSymbolTableRecord
100
AcDbLayerTableRecord
  2
C4
 70
     0
 62
     3
  6
CONTINUOUS
370
    -3
390
5653
  0
ENDTAB
  0
TABLE
  2
STYLE
  5
3
330
0
100
AcDbSymbolTable
 70
     2
  0
STYLE
  5
F
330
3
100
AcDbSymbolTableRecord
100
AcDbTextStyleTableRecord
  2
STANDARD
 70
     0
 40
0.0
 41
1.0
 50
0.0
 71
     0
 42
2.5
  3
txt
  4

  0
STYLE
  5
30
330
3
100
AcDbSymbolTableRecord
100
AcDbTextStyleTableRecord
  2
KANJI
 70
     0
 40
0.0
 41
1.0
 50
0.0
 71
     0
 42
2.5
  3
simplex.shx
  4
bigfont.shx
  0
ENDTAB
  0
TABLE
  2
VIEW
  5
6
330
0
100
AcDbSymbolTable
 70
     1
  0
VIEW
  5
BDD0
102
{ACAD_XDICTIONARY
360
1CC78
102
}
330
6
100
AcDbSymbolTableRecord
100
AcDbViewTableRecord
  2
OLE1
 70
     0
 40
128.4835243477898
 10
558.0618703034061
 20
-1194.462792061493
 41
235.4001713943434
 11
0.0
 21
0.0
 31
1.0
 12
0.0
 22
0.0
 32
0.0
 42
50.0
 43
0.0
 44
0.0
 50
0.0
 71
     0
281
     0
 72
     0
  0
ENDTAB
  0
TABLE
  2
UCS
  5
7
330
0
100
AcDbSymbolTable
 70
     0
  0
ENDTAB
  0
TABLE
  2
APPID
  5
9
330
0
100
AcDbSymbolTable
 70
    12
  0
APPID
  5
10
330
9
100
AcDbSymbolTableRecord
100
AcDbRegAppTableRecord
  2
ACAD
 70
     0
  0
APPID
  5
59C4
330
9
100
AcDbSymbolTableRecord
100
AcDbRegAppTableRecord
  2
ACAD_PSEXT
 70
     0
  0
APPID
  5
C4FF
330
9
100
AcDbSymbolTableRecord
100
AcDbRegAppTableRecord
  2
ACAD_DSTYLE_DIMRADIAL_EXTENSION
 70
     0
  0
APPID
  5
C5A2
330
9
100
AcDbSymbolTableRecord
100
AcDbRegAppTableRecord
  2
ACAD_EXEMPT_FROM_CAD_STANDARDS
 70
     0
  0
APPID
  5
C68B
330
9
100
AcDbSymbolTableRecord
100
AcDbRegAppTableRecord
  2
ACAD_NAV_VCDISPLAY
 70
     0
  0
APPID
  5
CBDD
330
9
100
AcDbSymbolTableRecord
100
AcDbRegAppTableRecord
  2
ACAD_MLEADERVER
 70
     0
  0
APPID
  5
D1B6
330
9
100
AcDbSymbolTableRecord
100
AcDbRegAppTableRecord
  2
GradientColor1ACI
 70
     0
  0
APPID
  5
D1B7
330
9
100
AcDbSymbolTableRecord
100
AcDbRegAppTableRecord
  2
GradientColor2ACI
 70
     0
  0
APPID
  5
129E4
330
9
100
AcDbSymbolTableRecord
100
AcDbRegAppTableRecord
  2
ACAD_DSTYLE_DIMJAG
 70
     0
  0
APPID
  5
129E5
330
9
100
AcDbSymbolTableRecord
100
AcDbRegAppTableRecord
  2
ACAD_DSTYLE_DIMTALN
 70
     0
  0
APPID
  5
133AF
330
9
100
AcDbSymbolTableRecord
100
AcDbRegAppTableRecord
  2
ACAD_DSTYLE_DIMBREAK
 70
     0
  0
APPID
  5
1C9CD
330
9
100
AcDbSymbolTableRecord
100
AcDbRegAppTableRecord
  2
ACAD_DSTYLE_DIMFLIPARROW_WHICH_SYMBOL
 70
     0
  0
ENDTAB
  0
TABLE
  2
DIMSTYLE
  5
A
330
0
100
AcDbSymbolTable
 70
     2
100
AcDbDimStyleTable
 71
     2
340
E2
340
1D
  0
DIMSTYLE
105
1D
330
A
100
AcDbSymbolTableRecord
100
AcDbDimStyleTableRecord
  2
STANDARD
 70
     0
 73
     0
 74
     0
140
3.0
172
     1
340
F
1001
ACAD_DSTYLE_DIMJAG
1070
   388
1040
1.5
1001
ACAD_DSTYLE_DIMTALN
1070
   392
1070
     0
  0
DIMSTYLE
105
E2
102
{ACAD_REACTORS
330
565E
102
}
330
A
100
AcDbSymbolTableRecord
100
AcDbDimStyleTableRecord
  2
M
 70
     0
 40
0.0
 41
2.0
 42
0.5
 43
0.0
 44
1.0
 73
     0
 74
     0
 77
     1
 78
     8
140
3.0
141
0.0
147
0.5
172
     1
173
     1
284
     8
340
30
341
74
343
74
344
74
1001
ACAD_DSTYLE_DIMJAG
1070
   388
1040
1.5
1001
ACAD_DSTYLE_DIMTALN
1070
   392
1070
     0
  0
ENDTAB
  0
TABLE
  2
BLOCK_RECORD
  5
1
330
0
100
AcDbSymbolTable
 70
     3
  0
BLOCK_RECORD
  5
18
102
{ACAD_XDICTIONARY
360
56C2
102
}
330
1
100
AcDbSymbolTableRecord
100
AcDbBlockTableRecord
  2
*MODEL_SPACE
340
5656
  0
BLOCK_RECORD
  5
15
102
{ACAD_XDICTIONARY
360
56C0
102
}
330
1
100
AcDbSymbolTableRecord
100
AcDbBlockTableRecord
  2
*PAPER_SPACE
340
5657
  0
BLOCK_RECORD
  5
74
330
1
100
AcDbSymbolTableRecord
100
AcDbBlockTableRecord
  2
2
340
0
102
{BLKREFS
331
149A7
331
149A8
331
1F5D5
331
1F5D6
102
}
  0
BLOCK_RECORD
  5
565F
330
1
100
AcDbSymbolTableRecord
100
AcDbBlockTableRecord
  2
*D1
340
0
  0
BLOCK_RECORD
  5
1F5CF
330
1
100
AcDbSymbolTableRecord
100
AcDbBlockTableRecord
  2
*D2
340
0
  0
ENDTAB
  0
ENDSEC
  0
SECTION
  2
BLOCKS
  0
BLOCK
  5
19
330
18
100
AcDbEntity
  8
0
100
AcDbBlockBegin
  2
*MODEL_SPACE
 70
     0
 10
0.0
 20
0.0
 30
0.0
  3
*MODEL_SPACE
  1

  0
ENDBLK
  5
1A
330
18
100
AcDbEntity
  8
0
100
AcDbBlockEnd
  0
BLOCK
  5
16
330
15
100
AcDbEntity
 67
     1
  8
0
100
AcDbBlockBegin
  2
*PAPER_SPACE
 70
     0
 10
0.0
 20
0.0
 30
0.0
  3
*PAPER_SPACE
  1

  0
ENDBLK
  5
17
330
15
100
AcDbEntity
 67
     1
  8
0
100
AcDbBlockEnd
  0
BLOCK
  5
130
330
74
100
AcDbEntity
  8
0
 48
3.0
100
AcDbBlockBegin
  2
2
 70
     0
 10
0.0
 20
0.0
 30
0.0
  3
2
  1

  0
HATCH
  5
131
330
74
100
AcDbEntity
  8
0
  6
ByBlock
 62
     0
 48
3.0
100
AcDbHatch
 10
0.0
 20
0.0
 30
0.0
210
0.0
220
0.0
230
1.0
  2
SOLID
 70
     1
 71
     0
 91
        1
 92
        1
 93
        3
 72
     1
 10
-0.9999999999983517
 20
0.2679491924306774
 11
0.0
 21
0.0
 72
     1
 10
0.0
 20
0.0
 11
-0.9999999999983517
 21
-0.2679491924306765
 72
     1
 10
-0.9999999999983524
 20
-0.267949192430676
 11
-0.9999999999983524
 21
0.2679491924306774
 97
        0
 75
     0
 76
     1
 98
        1
 10
2.995745117231336
 20
-4.124946096263201
  0
ENDBLK
  5
132
330
74
100
AcDbEntity
  8
0
 48
3.0
100
AcDbBlockEnd
  0
BLOCK
  5
566B
330
565F
100
AcDbEntity
  8
0
 48
3.0
100
AcDbBlockBegin
  2
*D1
 70
     1
 10
0.0
 20
0.0
 30
0.0
  3
*D1
  1

  0
LINE
  5
149A2
330
565F
100
AcDbEntity
  8
4太線
 62
     0
 48
3.0
370
    -2
100
AcDbLine
 10
-189.2541620078423
 20
-274.5371161697541
 30
0.0
 11
-197.3190488198961
 21
-274.5371161697541
 31
0.0
  0
LINE
  5
149A3
330
565F
100
AcDbEntity
  8
4太線
 62
     0
 48
3.0
370
    -2
100
AcDbLine
 10
-189.2541620078423
 20
-274.6610778138584
 30
0.0
 11
-197.3190488198961
 21
-274.6610778138584
 31
0.0
  0
LINE
  5
149A4
330
565F
100
AcDbEntity
  8
4太線
 62
     0
 48
3.0
370
    -2
100
AcDbLine
 10
-196.3190488198961
 20
-272.7371161697541
 30
0.0
 11
-196.3190488198961
 21
-270.9371161697541
 31
0.0
  0
LINE
  5
149A5
330
565F
100
AcDbEntity
  8
4太線
 62
     0
 48
3.0
370
    -2
100
AcDbLine
 10
-196.3190488198961
 20
-276.4610778138584
 30
0.0
 11
-196.3190488198961
 21
-303.1182206710012
 31
0.0
  0
LINE
  5
149A6
330
565F
100
AcDbEntity
  8
4太線
 62
     0
 48
3.0
370
    -2
100
AcDbLine
 10
-196.3190488198961
 20
-274.5371161697541
 30
0.0
 11
-196.3190488198961
 21
-274.6610778138584
 31
0.0
  0
INSERT
  5
149A7
330
565F
100
AcDbEntity
  8
4太線
 62
     0
 48
3.0
370
    -2
100
AcDbBlockReference
  2
2
 10
-196.3190488198961
 20
-274.5371161697541
 30
0.0
 41
1.8
 42
1.8
 43
1.8
 50
270.0
  0
INSERT
  5
149A8
330
565F
100
AcDbEntity
  8
4太線
 62
     0
 48
3.0
370
    -2
100
AcDbBlockReference
  2
2
 10
-196.3190488198961
 20
-274.6610778138584
 30
0.0
 41
1.8
 42
1.8
 43
1.8
 50
90.0
  0
MTEXT
  5
149A9
330
565F
100
AcDbEntity
  8
4太線
 62
     0
 48
3.0
100
AcDbMText
 10
-198.3190488198961
 20
-290.6896492424298
 30
0.0
 40
3.0
 41
0.0
 71
     5
 72
     1
  1
\A1;0   （すきま）
  7
KANJI
 11
0.0000000000000001
 21
1.0
 31
0.0
 73
     1
 44
1.0
1001
ACAD
1000
MTEXTBEGIN
1070
    73
1070
     1
1070
    44
1040
1.0
1070
    74
1070
     0
1000
MTEXTEND
  0
POINT
  5
149AA
330
565F
100
AcDbEntity
  8
DEFPOINTS
 62
     0
 48
3.0
100
AcDbPoint
 10
-188.7541620078423
 20
-274.5371161697541
 30
0.0
  0
POINT
  5
149AB
330
565F
100
AcDbEntity
  8
DEFPOINTS
 62
     0
 48
3.0
100
AcDbPoint
 10
-188.7541620078423
 20
-274.6610778138584
 30
0.0
  0
POINT
  5
149AC
330
565F
100
AcDbEntity
  8
DEFPOINTS
 62
     0
 48
3.0
100
AcDbPoint
 10
-196.3190488198961
 20
-274.6610778138584
 30
0.0
  0
ENDBLK
  5
566C
330
565F
100
AcDbEntity
  8
0
 48
3.0
100
AcDbBlockEnd
  0
BLOCK
  5
1F5DB
330
1F5CF
100
AcDbEntity
  8
0
 48
3.0
100
AcDbBlockBegin
  2
*D2
 70
     1
 10
0.0
 20
0.0
 30
0.0
  3
*D2
  1

  0
LINE
  5
1F5D0
330
1F5CF
100
AcDbEntity
  8
1外形線
 62
     0
 48
3.0
370
    -2
100
AcDbLine
 10
265.898986870483
 20
-3679.473198772809
 30
0.0
 11
271.3337823659458
 21
-3679.473198772809
 31
0.0
  0
LINE
  5
1F5D1
330
1F5CF
100
AcDbEntity
  8
1外形線
 62
     0
 48
3.0
370
    -2
100
AcDbLine
 10
265.8989868704866
 20
-3680.473198772807
 30
0.0
 11
271.3337823659458
 21
-3680.473198772807
 31
0.0
  0
LINE
  5
1F5D2
330
1F5CF
100
AcDbEntity
  8
1外形線
 62
     0
 48
3.0
370
    -2
100
AcDbLine
 10
270.3337823659458
 20
-3677.673198772808
 30
0.0
 11
270.3337823659458
 21
-3675.873198772809
 31
0.0
  0
LINE
  5
1F5D3
330
1F5CF
100
AcDbEntity
  8
1外形線
 62
     0
 48
3.0
370
    -2
100
AcDbLine
 10
270.3337823659458
 20
-3682.273198772807
 30
0.0
 11
270.3337823659458
 21
-3685.787484487093
 31
0.0
  0
LINE
  5
1F5D4
330
1F5CF
100
AcDbEntity
  8
1外形線
 62
     0
 48
3.0
370
    -2
100
AcDbLine
 10
270.3337823659458
 20
-3679.473198772809
 30
0.0
 11
270.3337823659458
 21
-3680.473198772807
 31
0.0
  0
INSERT
  5
1F5D5
330
1F5CF
100
AcDbEntity
  8
1外形線
 62
     0
 48
3.0
370
    -2
100
AcDbBlockReference
  2
2
 10
270.3337823659458
 20
-3679.473198772809
 30
0.0
 41
1.8
 42
1.8
 43
1.8
 50
270.0
  0
INSERT
  5
1F5D6
330
1F5CF
100
AcDbEntity
  8
1外形線
 62
     0
 48
3.0
370
    -2
100
AcDbBlockReference
  2
2
 10
270.3337823659458
 20
-3680.473198772807
 30
0.0
 41
1.8
 42
1.8
 43
1.8
 50
90.0
  0
MTEXT
  5
1F5D7
330
1F5CF
100
AcDbEntity
  8
1外形線
 62
     0
 48
3.0
100
AcDbMText
 10
268.3337823659464
 20
-3684.93034162995
 30
0.0
 40
3.0
 41
0.0
 71
     5
 72
     1
  1
\A1;1
  7
KANJI
 11
0.0000000000000001
 21
1.0
 31
0.0
 73
     1
 44
1.0
1001
ACAD
1000
MTEXTBEGIN
1070
    73
1070
     1
1070
    44
1040
1.0
1070
    74
1070
     0
1000
MTEXTEND
  0
POINT
  5
1F5D8
330
1F5CF
100
AcDbEntity
  8
DEFPOINTS
 62
     0
 48
3.0
100
AcDbPoint
 10
265.398986870483
 20
-3679.473198772809
 30
0.0
  0
POINT
  5
1F5D9
330
1F5CF
100
AcDbEntity
  8
DEFPOINTS
 62
     0
 48
3.0
100
AcDbPoint
 10
265.3989868704866
 20
-3680.473198772807
 30
0.0
  0
POINT
  5
1F5DA
330
1F5CF
100
AcDbEntity
  8
DEFPOINTS
 62
     0
 48
3.0
100
AcDbPoint
 10
270.3337823659458
 20
-3680.473198772807
 30
0.0
  0
ENDBLK
  5
1F5DC
330
1F5CF
100
AcDbEntity
  8
0
 48
3.0
100
AcDbBlockEnd
  0
ENDSEC
  0
SECTION
  2
ENTITIES
  0
DIMENSION
  5
565E
330
18
100
AcDbEntity
  8
4太線
 48
3.0
100
AcDbDimension
  2
*D1
 10
-196.3190488198961
 20
-274.6610778138584
 30
0.0
 11
-196.3190488198961
 21
-290.6896492424298
 31
0.0
 70
   160
  1
0   （すきま）
 71
     5
 42
0.1239616441042699
  3
M
100
AcDbAlignedDimension
 13
-188.7541620078423
 23
-274.5371161697541
 33
0.0
 14
-188.7541620078423
 24
-274.6610778138584
 34
0.0
 50
90.0
100
AcDbRotatedDimension
1001
ACAD
1000
DSTYLE
1002
{
1070
    40
1040
1.0
1070
    41
1040
1.8
1002
}
  0
ELLIPSE
  5
5696
330
18
100
AcDbEntity
  8
4太線
 48
3.0
100
AcDbEllipse
 10
-199.2812896214093
 20
-288.7076302764731
 30
0.0
 11
-0.0000000000000008
 21
-13.21235652907671
 31
0.0
210
0.0
220
0.0
230
1.0
 40
0.4302449210573843
 41
0.0
 42
6.283185307179584
  0
MTEXT
  5
5697
330
18
100
AcDbEntity
  8
4太線
 48
3.0
100
AcDbMText
 10
-199.9649653575859
 20
-292.411681222334
 30
0.0
 40
3.0
 41
0.0
 71
     7
 72
     1
  1
今後実施
  7
KANJI
 11
0.0000000000000001
 21
1.0
 31
0.0
 73
     1
 44
1.0
1001
ACAD
1000
MTEXTBEGIN
1070
    73
1070
     1
1070
    44
1040
1.0
1070
    74
1070
     0
1000
MTEXTEND
  0
TEXT
  5
5698
330
18
100
AcDbEntity
  8
4太線
 48
3.0
100
AcDbText
 10
-198.887140784462
 20
-298.0635947985902
 30
0.0
 40
1.8
  1
+0.3
 50
90.0
 41
0.8
  7
KANJI
100
AcDbText
  0
TEXT
  5
5699
330
18
100
AcDbEntity
  8
4太線
 48
3.0
100
AcDbText
 10
-196.5119985233816
 20
-296.2534594756826
 30
0.0
 40
1.8
  1
0
 50
90.0
 41
0.8
  7
KANJI
100
AcDbText
  0
LINE
  5
1E0C9
330
18
100
AcDbEntity
  8
1外形線
 48
3.0
100
AcDbLine
 10
185.1527756192316
 20
-3621.473198772807
 30
0.0
 11
199.8989868704793
 21
-3621.473198772807
 31
0.0
  0
LINE
  5
1E0CA
330
18
100
AcDbEntity
  8
1外形線
 48
3.0
100
AcDbLine
 10
185.1527756192354
 20
-3623.973198772806
 30
0.0
 11
199.8989868704793
 21
-3623.973198772806
 31
0.0
  0
LINE
  5
1E0CB
330
18
100
AcDbEntity
  8
1外形線
 48
3.0
100
AcDbLine
 10
185.1527756192316
 20
-3620.473198772807
 30
0.0
 11
199.8989868704793
 21
-3620.473198772807
 31
0.0
  0
LINE
  5
1E0CD
330
18
100
AcDbEntity
  8
1外形線
 48
3.0
100
AcDbLine
 10
240.3989868704757
 20
-3680.473198772807
 30
0.0
 11
265.3989868704866
 21
-3680.473198772807
 31
0.0
  0
ARC
  5
1E0CE
330
18
100
AcDbEntity
  8
1外形線
 48
3.0
100
AcDbCircle
 10
240.3989868704757
 20
-3674.473198772807
 30
0.0
 40
6.0
100
AcDbArc
 50
180.0
 51
270.0
  0
ARC
  5
1E0CF
330
18
100
AcDbEntity
  8
1外形線
 48
3.0
100
AcDbCircle
 10
240.3989868704757
 20
-3674.473198772807
 30
0.0
 40
5.0
100
AcDbArc
 50
180.0
 51
270.0
  0
LINE
  5
1E0D2
330
18
100
AcDbEntity
  8
1外形線
 48
3.0
100
AcDbLine
 10
165.3989868704793
 20
-3641.226987521565
 30
0.0
 11
165.3989868704751
 21
-3680.473198772807
 31
0.0
  0
LINE
  5
1E0D3
330
18
100
AcDbEntity
  8
1外形線
 48
3.0
100
AcDbLine
 10
167.8989868704757
 20
-3641.226987521565
 30
0.0
 11
167.8989868704757
 21
-3667.973198772807
 31
0.0
  0
LINE
  5
1E0D4
330
18
100
AcDbEntity
  8
1外形線
 48
3.0
100
AcDbLine
 10
164.3989868704757
 20
-3641.226987521565
 30
0.0
 11
164.3989868704757
 21
-3680.473198772807
 31
0.0
  0
LINE
  5
1E0DB
330
18
100
AcDbEntity
  8
1外形線
 48
3.0
100
AcDbLine
 10
234.3989868704757
 20
-3641.226987521565
 30
0.0
 11
234.3989868704757
 21
-3674.473198772807
 31
0.0
  0
LINE
  5
1E0DC
330
18
100
AcDbEntity
  8
1外形線
 48
3.0
100
AcDbLine
 10
231.8989868704757
 20
-3641.226987521565
 30
0.0
 11
231.8989868704757
 21
-3671.973198772807
 31
0.0
  0
ARC
  5
1E0DD
330
18
100
AcDbEntity
  8
1外形線
 48
3.0
100
AcDbCircle
 10
234.3989868704757
 20
-3671.973198772807
 30
0.0
 40
2.5
100
AcDbArc
 50
180.0
 51
270.0
  0
LINE
  5
1E0DE
330
18
100
AcDbEntity
  8
1外形線
 48
3.0
100
AcDbLine
 10
235.3989868704757
 20
-3641.226987521565
 30
0.0
 11
235.3989868704793
 21
-3674.473198772807
 31
0.0
  0
LINE
  5
1E0DF
330
18
100
AcDbEntity
  8
1外形線
 48
3.0
100
AcDbLine
 10
265.3989868704794
 20
-3679.473198772806
 30
0.0
 11
265.3989868704794
 21
-3680.473198772807
 31
0.0
  0
LINE
  5
1E0E0
330
18
100
AcDbEntity
  8
1外形線
 48
3.0
100
AcDbLine
 10
240.3989868704757
 20
-3679.473198772806
 30
0.0
 11
265.398986870483
 21
-3679.473198772809
 31
0.0
  0
LINE
  5
1E0E3
330
18
100
AcDbEntity
  8
1外形線
 48
3.0
100
AcDbLine
 10
234.3989868704757
 20
-3674.473198772807
 30
0.0
 11
234.3989868704757
 21
-3674.473198772807
 31
0.0
  0
LINE
  5
1E0E4
330
18
100
AcDbEntity
  8
1外形線
 48
3.0
100
AcDbLine
 10
165.3989868704757
 20
-3670.473198772807
 30
0.0
 11
165.3989868704757
 21
-3670.473198772807
 31
0.0
  0
ARC
  5
1E0E5
330
18
100
AcDbEntity
  8
1外形線
 48
3.0
100
AcDbCircle
 10
165.3989868704757
 20
-3667.973198772807
 30
0.0
 40
2.5
100
AcDbArc
 50
270.0
 51
0.0
  0
LINE
  5
1E0EB
330
18
100
AcDbEntity
  8
C4
100
AcDbLine
 10
332.3989868704793
 20
-3673.473198772807
 30
0.0
 11
332.3989868704793
 21
-3620.473198772807
 31
0.0
  0
ARC
  5
1E0EC
330
18
100
AcDbEntity
  8
1外形線
100
AcDbCircle
 10
333.3989868704794
 20
-3673.473198772807
 30
0.0
 40
1.0
100
AcDbArc
 50
180.0
 51
270.0
  0
LINE
  5
1E0ED
330
18
100
AcDbEntity
  8
C4
100
AcDbLine
 10
334.3989868704793
 20
-3673.473198772807
 30
0.0
 11
334.3989868704793
 21
-3620.473198772807
 31
0.0
  0
LINE
  5
1E0EE
330
18
100
AcDbEntity
  8
C4
100
AcDbLine
 10
324.3989868704793
 20
-3680.473198772821
 30
0.0
 11
324.3989868704793
 21
-3620.473198772807
 31
0.0
  0
LINE
  5
1E0EF
330
18
100
AcDbEntity
  8
C4
100
AcDbLine
 10
342.3989868704794
 20
-3620.473198772807
 30
0.0
 11
342.3989868704794
 21
-3680.47319877282
 31
0.0
  0
LINE
  5
1E0F1
330
18
100
AcDbEntity
  8
C4
100
AcDbLine
 10
324.3989868704793
 20
-3620.473198772807
 30
0.0
 11
332.3989868704793
 21
-3620.473198772807
 31
0.0
  0
LINE
  5
1E0F2
330
18
100
AcDbEntity
  8
C4
100
AcDbLine
 10
334.3989868704793
 20
-3620.473198772807
 30
0.0
 11
342.3989868704794
 21
-3620.473198772807
 31
0.0
  0
LINE
  5
1E0F5
330
18
100
AcDbEntity
  8
C4
100
AcDbLine
 10
164.3989868704757
 20
-3567.572371195146
 30
0.0
 11
265.3989868704794
 21
-3567.572371195146
 31
0.0
  0
LINE
  5
1E0F7
330
18
100
AcDbEntity
  8
C4
100
AcDbLine
 10
265.3989868704794
 20
-3549.572371195148
 30
0.0
 11
164.3989868704757
 21
-3549.572371195147
 31
0.0
  0
CIRCLE
  5
1E0F9
330
18
100
AcDbEntity
  8
C4
100
AcDbCircle
 10
252.8989868704794
 20
-3558.572371195146
 30
0.0
 40
2.1
  0
LINE
  5
1E0FA
330
18
100
AcDbEntity
  8
C4
100
AcDbLine
 10
164.3989868704757
 20
-3559.572371195146
 30
0.0
 11
235.3989868704793
 21
-3559.572371195146
 31
0.0
  0
LINE
  5
1E0FB
330
18
100
AcDbEntity
  8
C4
100
AcDbLine
 10
164.3989868704757
 20
-3557.572371195146
 30
0.0
 11
235.3989868704793
 21
-3557.572371195146
 31
0.0
  0
LINE
  5
1E0FF
330
18
100
AcDbEntity
  8
C4
100
AcDbLine
 10
164.3989868704757
 20
-3567.572371195146
 30
0.0
 11
164.3989868704757
 21
-3549.572371195147
 31
0.0
  0
LINE
  5
1E100
330
18
100
AcDbEntity
  8
C4
100
AcDbLine
 10
235.3989868704793
 20
-3567.572371195146
 30
0.0
 11
235.3989868704757
 21
-3549.572371195147
 31
0.0
  0
LINE
  5
1E101
330
18
100
AcDbEntity
  8
C4
100
AcDbLine
 10
265.3989868704794
 20
-3567.572371195146
 30
0.0
 11
265.3989868704794
 21
-3549.572371195148
 31
0.0
  0
ARC
  5
1E103
330
18
100
AcDbEntity
  8
C4
100
AcDbCircle
 10
165.8989868704757
 20
-3558.572371195146
 30
0.0
 40
1.0
100
AcDbArc
 50
270.0
 51
90.0
  0
LINE
  5
1E104
330
18
100
AcDbEntity
  8
C4
100
AcDbLine
 10
165.8989868704757
 20
-3559.572371195146
 30
0.0
 11
164.3989868704757
 21
-3559.572371195146
 31
0.0
  0
LINE
  5
1E105
330
18
100
AcDbEntity
  8
C4
100
AcDbLine
 10
165.8989868704757
 20
-3557.572371195146
 30
0.0
 11
164.3989868704757
 21
-3557.572371195146
 31
0.0
  0
LINE
  5
1E106
330
18
100
AcDbEntity
  8
C4
100
AcDbLine
 10
97.39898687047571
 20
-3669.473198772806
 30
0.0
 11
97.39898687047571
 21
-3620.473198772807
 31
0.0
  0
LINE
  5
1E107
330
18
100
AcDbEntity
  8
C4
100
AcDbLine
 10
95.39898687047571
 20
-3669.473198772806
 30
0.0
 11
95.39898687047571
 21
-3620.473198772807
 31
0.0
  0
LINE
  5
1E108
330
18
100
AcDbEntity
  8
C4
100
AcDbLine
 10
105.3989868704757
 20
-3620.473198772807
 30
0.0
 11
105.3989868704719
 21
-3680.473198772803
 31
0.0
  0
LINE
  5
1E10A
330
18
100
AcDbEntity
  8
C4
100
AcDbLine
 10
87.39898687047199
 20
-3680.473198772805
 30
0.0
 11
87.39898687047571
 21
-3620.473198772807
 31
0.0
  0
LINE
  5
1E10F
330
18
100
AcDbEntity
  8
C4
100
AcDbLine
 10
87.39898687047199
 20
-3680.473198772805
 30
0.0
 11
105.3989868704719
 21
-3680.473198772803
 31
0.0
  0
ARC
  5
1E112
330
18
100
AcDbEntity
  8
C4
100
AcDbCircle
 10
96.39898687047571
 20
-3669.473198772806
 30
0.0
 40
1.0
100
AcDbArc
 50
180.0
 51
0.0
  0
LINE
  5
1E113
330
18
100
AcDbEntity
  8
C4
100
AcDbLine
 10
87.39898687047571
 20
-3620.473198772807
 30
0.0
 11
95.39898687047571
 21
-3620.473198772807
 31
0.0
  0
LINE
  5
1E114
330
18
100
AcDbEntity
  8
C4
100
AcDbLine
 10
97.39898687047571
 20
-3620.473198772807
 30
0.0
 11
105.3989868704757
 21
-3620.473198772807
 31
0.0
  0
ARC
  5
1E115
330
18
100
AcDbEntity
  8
C4
100
AcDbCircle
 10
96.39898687047571
 20
-3621.973198772807
 30
0.0
 40
1.0
100
AcDbArc
 50
180.0
 51
0.0
  0
LINE
  5
1E116
330
18
100
AcDbEntity
  8
C4
100
AcDbLine
 10
95.39898687047571
 20
-3621.973198772807
 30
0.0
 11
95.39898687047571
 21
-3620.473198772807
 31
0.0
  0
LINE
  5
1E117
330
18
100
AcDbEntity
  8
C4
100
AcDbLine
 10
97.39898687047571
 20
-3621.973198772807
 30
0.0
 11
97.39898687047571
 21
-3620.473198772807
 31
0.0
  0
ARC
  5
1E118
330
18
100
AcDbEntity
  8
C4
100
AcDbCircle
 10
233.8989868704794
 20
-3558.572371195146
 30
0.0
 40
1.0
100
AcDbArc
 50
90.0
 51
270.0
  0
LINE
  5
1E119
330
18
100
AcDbEntity
  8
C4
100
AcDbLine
 10
233.8989868704794
 20
-3559.572371195146
 30
0.0
 11
235.3989868704793
 21
-3559.572371195146
 31
0.0
  0
LINE
  5
1E11A
330
18
100
AcDbEntity
  8
C4
100
AcDbLine
 10
233.8989868704794
 20
-3557.572371195146
 30
0.0
 11
235.3989868704793
 21
-3557.572371195146
 31
0.0
  0
LINE
  5
1E11C
330
18
100
AcDbEntity
  8
1外形線
 48
3.0
100
AcDbLine
 10
333.3989868704794
 20
-3674.473198772807
 30
0.0
 11
333.3989868704794
 21
-3674.473198772807
 31
0.0
  0
ARC
  5
1E11D
330
18
100
AcDbEntity
  8
1外形線
 48
3.0
100
AcDbCircle
 10
333.3989868704794
 20
-3673.473198772807
 30
0.0
 40
1.0
100
AcDbArc
 50
270.0
 51
0.0
  0
ARC
  5
1E11E
330
18
100
AcDbEntity
  8
C4
100
AcDbCircle
 10
333.3989868704794
 20
-3621.973198772807
 30
0.0
 40
1.0
100
AcDbArc
 50
180.0
 51
0.0
  0
ARC
  5
1E171
330
18
100
AcDbEntity
  8
1外形線
 48
3.0
100
AcDbCircle
 10
193.3989868704721
 20
-3649.473198772807
 30
0.0
 40
30.0
100
AcDbArc
 50
117.2660444508224
 51
152.7339555491847
  0
ARC
  5
1E172
330
18
100
AcDbEntity
  8
1外形線
 48
3.0
100
AcDbCircle
 10
193.3989868704721
 20
-3649.473198772807
 30
0.0
 40
27.5
100
AcDbArc
 50
117.2660444508224
 51
152.7339555491847
  0
ARC
  5
1E173
330
18
100
AcDbEntity
  8
1外形線
 48
3.0
100
AcDbCircle
 10
193.3989868704721
 20
-3649.473198772807
 30
0.0
 40
31.0
100
AcDbArc
 50
117.2660444508224
 51
152.7339555491847
  0
ARC
  5
1E174
330
18
100
AcDbEntity
  8
1外形線
 48
3.0
100
AcDbCircle
 10
177.3989868704757
 20
-3641.226987521565
 30
0.0
 40
12.0
100
AcDbArc
 50
152.7339555491847
 51
180.0
  0
ARC
  5
1E175
330
18
100
AcDbEntity
  8
1外形線
 48
3.0
100
AcDbCircle
 10
177.3989868704757
 20
-3641.226987521565
 30
0.0
 40
9.5
100
AcDbArc
 50
152.7339555491847
 51
180.0
  0
ARC
  5
1E176
330
18
100
AcDbEntity
  8
1外形線
 48
3.0
100
AcDbCircle
 10
177.3989868704757
 20
-3641.226987521565
 30
0.0
 40
13.0
100
AcDbArc
 50
152.7339555491847
 51
180.0
  0
ARC
  5
1E177
330
18
100
AcDbEntity
  8
1外形線
 48
3.0
100
AcDbCircle
 10
185.1527756192354
 20
-3633.473198772807
 30
0.0
 40
12.0
100
AcDbArc
 50
90.0
 51
117.2660444508224
  0
ARC
  5
1E178
330
18
100
AcDbEntity
  8
1外形線
 48
3.0
100
AcDbCircle
 10
185.1527756192354
 20
-3633.473198772807
 30
0.0
 40
9.5
100
AcDbArc
 50
90.0
 51
117.2660444508224
  0
ARC
  5
1E179
330
18
100
AcDbEntity
  8
1外形線
 48
3.0
100
AcDbCircle
 10
185.1527756192354
 20
-3633.473198772807
 30
0.0
 40
13.0
100
AcDbArc
 50
90.0
 51
117.2660444508224
  0
LINE
  5
1E17A
330
18
100
AcDbEntity
  8
1外形線
 48
3.0
100
AcDbLine
 10
214.6451981217197
 20
-3621.473198772807
 30
0.0
 11
199.898986870472
 21
-3621.473198772807
 31
0.0
  0
LINE
  5
1E17B
330
18
100
AcDbEntity
  8
1外形線
 48
3.0
100
AcDbLine
 10
214.645198121716
 20
-3623.973198772806
 30
0.0
 11
199.898986870472
 21
-3623.973198772806
 31
0.0
  0
LINE
  5
1E17C
330
18
100
AcDbEntity
  8
1外形線
 48
3.0
100
AcDbLine
 10
214.6451981217197
 20
-3620.473198772807
 30
0.0
 11
199.898986870472
 21
-3620.473198772807
 31
0.0
  0
ARC
  5
1E17D
330
18
100
AcDbEntity
  8
1外形線
 48
3.0
100
AcDbCircle
 10
206.3989868704794
 20
-3649.473198772807
 30
0.0
 40
30.0
100
AcDbArc
 50
27.26604445069283
 51
62.733955549391
  0
ARC
  5
1E17E
330
18
100
AcDbEntity
  8
1外形線
 48
3.0
100
AcDbCircle
 10
206.3989868704794
 20
-3649.473198772807
 30
0.0
 40
27.5
100
AcDbArc
 50
27.26604445069283
 51
62.733955549391
  0
ARC
  5
1E17F
330
18
100
AcDbEntity
  8
1外形線
 48
3.0
100
AcDbCircle
 10
206.3989868704794
 20
-3649.473198772807
 30
0.0
 40
31.0
100
AcDbArc
 50
27.26604445069283
 51
62.733955549391
  0
ARC
  5
1E180
330
18
100
AcDbEntity
  8
1外形線
 48
3.0
100
AcDbCircle
 10
222.3989868704757
 20
-3641.226987521565
 30
0.0
 40
12.0
100
AcDbArc
 50
0.0
 51
27.26604445069283
  0
ARC
  5
1E181
330
18
100
AcDbEntity
  8
1外形線
 48
3.0
100
AcDbCircle
 10
222.3989868704757
 20
-3641.226987521565
 30
0.0
 40
9.5
100
AcDbArc
 50
0.0
 51
27.26604445069283
  0
ARC
  5
1E182
330
18
100
AcDbEntity
  8
1外形線
 48
3.0
100
AcDbCircle
 10
222.3989868704757
 20
-3641.226987521565
 30
0.0
 40
13.0
100
AcDbArc
 50
0.0
 51
27.26604445069283
  0
ARC
  5
1E183
330
18
100
AcDbEntity
  8
1外形線
 48
3.0
100
AcDbCircle
 10
214.645198121716
 20
-3633.473198772807
 30
0.0
 40
12.0
100
AcDbArc
 50
62.733955549391
 51
90.0
  0
ARC
  5
1E184
330
18
100
AcDbEntity
  8
1外形線
 48
3.0
100
AcDbCircle
 10
214.645198121716
 20
-3633.473198772807
 30
0.0
 40
9.5
100
AcDbArc
 50
62.733955549391
 51
90.0
  0
ARC
  5
1E185
330
18
100
AcDbEntity
  8
1外形線
 48
3.0
100
AcDbCircle
 10
214.645198121716
 20
-3633.473198772807
 30
0.0
 40
13.0
100
AcDbArc
 50
62.733955549391
 51
90.0
  0
LWPOLYLINE
  5
1E6D8
330
18
100
AcDbEntity
  8
1外形線
 48
3.0
100
AcDbPolyline
 90
        4
 70
     1
 43
0.0
 10
31.97889406453942
 20
-3508.983137928903
 10
363.4868902526758
 20
-3508.983137928903
 10
363.4868902526758
 20
-3719.253431156162
 10
31.97889406453942
 20
-3719.253431156162
  0
LWPOLYLINE
  5
1E6D9
330
18
100
AcDbEntity
  8
1外形線
 48
3.0
100
AcDbPolyline
 90
        4
 70
     1
 43
0.0
 10
31.97889406453942
 20
-3719.253431156162
 10
363.4868902526758
 20
-3719.253431156162
 10
363.4868902526758
 20
-3929.523724383421
 10
31.97889406453942
 20
-3929.523724383421
  0
TEXT
  5
1E6E1
330
18
100
AcDbEntity
  8
1外形線
 48
3.0
100
AcDbText
 10
41.37826487851961
 20
-3539.779297183327
 30
0.0
 40
13.15599289961526
  1
LDFS-70
  7
KANJI
100
AcDbText
  0
TEXT
  5
1E6E2
330
18
100
AcDbEntity
  8
1外形線
 48
3.0
100
AcDbText
 10
41.37826487851961
 20
-3747.966358225499
 30
0.0
 40
13.15599289961526
  1
LDFS-90
  7
KANJI
100
AcDbText
  0
LINE
  5
1F087
330
18
100
AcDbEntity
  8
1外形線
 48
3.0
100
AcDbLine
 10
163.2747985684455
 20
-3835.851789170868
 30
0.0
 11
187.7210098196865
 21
-3835.851789170868
 31
0.0
  0
LINE
  5
1F088
330
18
100
AcDbEntity
  8
1外形線
 48
3.0
100
AcDbLine
 10
163.2747985684455
 20
-3838.351789170868
 30
0.0
 11
187.7210098196865
 21
-3838.351789170868
 31
0.0
  0
LINE
  5
1F089
330
18
100
AcDbEntity
  8
1外形線
 48
3.0
100
AcDbLine
 10
163.2747985684455
 20
-3834.851789170868
 30
0.0
 11
187.7210098196865
 21
-3834.851789170868
 31
0.0
  0
LINE
  5
1F08B
330
18
100
AcDbEntity
  8
1外形線
 48
3.0
100
AcDbLine
 10
237.9210098196872
 20
-3904.851789170868
 30
0.0
 11
262.9210098196982
 21
-3904.851789170868
 31
0.0
  0
ARC
  5
1F08C
330
18
100
AcDbEntity
  8
1外形線
 48
3.0
100
AcDbCircle
 10
237.9210098196872
 20
-3898.851789170868
 30
0.0
 40
6.0
100
AcDbArc
 50
180.0
 51
270.0
  0
ARC
  5
1F08D
330
18
100
AcDbEntity
  8
1外形線
 48
3.0
100
AcDbCircle
 10
237.9210098196872
 20
-3898.851789170868
 30
0.0
 40
5.0
100
AcDbArc
 50
180.0
 51
270.0
  0
LINE
  5
1F090
330
18
100
AcDbEntity
  8
1外形線
 48
3.0
100
AcDbLine
 10
143.5210098196858
 20
-3855.605577919622
 30
0.0
 11
143.5210098196858
 21
-3904.851789170868
 31
0.0
  0
LINE
  5
1F091
330
18
100
AcDbEntity
  8
1外形線
 48
3.0
100
AcDbLine
 10
146.0210098196858
 20
-3855.605577919622
 30
0.0
 11
146.0210098196858
 21
-3892.351789170868
 31
0.0
  0
LINE
  5
1F092
330
18
100
AcDbEntity
  8
1外形線
 48
3.0
100
AcDbLine
 10
142.5210098196894
 20
-3855.605577919622
 30
0.0
 11
142.5210098196854
 21
-3904.851789170868
 31
0.0
  0
LINE
  5
1F099
330
18
100
AcDbEntity
  8
1外形線
 48
3.0
100
AcDbLine
 10
231.9210098196836
 20
-3855.605577919622
 30
0.0
 11
231.9210098196872
 21
-3898.851789170868
 31
0.0
  0
LINE
  5
1F09A
330
18
100
AcDbEntity
  8
1外形線
 48
3.0
100
AcDbLine
 10
229.4210098196836
 20
-3855.605577919622
 30
0.0
 11
229.4210098196872
 21
-3896.351789170868
 31
0.0
  0
ARC
  5
1F09B
330
18
100
AcDbEntity
  8
1外形線
 48
3.0
100
AcDbCircle
 10
231.9210098196872
 20
-3896.351789170868
 30
0.0
 40
2.5
100
AcDbArc
 50
180.0
 51
270.0
  0
LINE
  5
1F09C
330
18
100
AcDbEntity
  8
1外形線
 48
3.0
100
AcDbLine
 10
232.9210098196873
 20
-3855.605577919622
 30
0.0
 11
232.9210098196909
 21
-3898.851789170868
 31
0.0
  0
LINE
  5
1F09D
330
18
100
AcDbEntity
  8
1外形線
 48
3.0
100
AcDbLine
 10
262.9210098196909
 20
-3903.851789170868
 30
0.0
 11
262.9210098196909
 21
-3904.851789170868
 31
0.0
  0
LINE
  5
1F09E
330
18
100
AcDbEntity
  8
1外形線
 48
3.0
100
AcDbLine
 10
237.9210098196872
 20
-3903.851789170868
 30
0.0
 11
262.9210098196945
 21
-3903.851789170868
 31
0.0
  0
LINE
  5
1F0A1
330
18
100
AcDbEntity
  8
1外形線
 48
3.0
100
AcDbLine
 10
231.9210098196872
 20
-3898.851789170868
 30
0.0
 11
231.9210098196872
 21
-3898.851789170868
 31
0.0
  0
LINE
  5
1F0A2
330
18
100
AcDbEntity
  8
1外形線
 48
3.0
100
AcDbLine
 10
143.5210098196858
 20
-3894.851789170868
 30
0.0
 11
143.5210098196858
 21
-3894.851789170868
 31
0.0
  0
ARC
  5
1F0A3
330
18
100
AcDbEntity
  8
1外形線
 48
3.0
100
AcDbCircle
 10
143.5210098196858
 20
-3892.351789170868
 30
0.0
 40
2.5
100
AcDbArc
 50
270.0
 51
0.0
  0
LINE
  5
1F0A9
330
18
100
AcDbEntity
  8
C4
100
AcDbLine
 10
329.9210098196909
 20
-3897.851789170868
 30
0.0
 11
329.9210098196909
 21
-3834.851789170868
 31
0.0
  0
ARC
  5
1F0AA
330
18
100
AcDbEntity
  8
1外形線
100
AcDbCircle
 10
330.9210098196909
 20
-3897.851789170868
 30
0.0
 40
1.0
100
AcDbArc
 50
180.0
 51
270.0
  0
LINE
  5
1F0AB
330
18
100
AcDbEntity
  8
C4
100
AcDbLine
 10
331.9210098196909
 20
-3897.851789170868
 30
0.0
 11
331.9210098196909
 21
-3834.851789170868
 31
0.0
  0
LINE
  5
1F0AC
330
18
100
AcDbEntity
  8
C4
100
AcDbLine
 10
321.9210098196909
 20
-3904.851789170884
 30
0.0
 11
321.9210098196909
 21
-3834.851789170868
 31
0.0
  0
LINE
  5
1F0AD
330
18
100
AcDbEntity
  8
C4
100
AcDbLine
 10
339.9210098196909
 20
-3834.851789170868
 30
0.0
 11
339.9210098196909
 21
-3904.851789170868
 31
0.0
  0
LINE
  5
1F0B8
330
18
100
AcDbEntity
  8
C4
100
AcDbLine
 10
321.9210098196909
 20
-3834.851789170868
 30
0.0
 11
329.9210098196909
 21
-3834.851789170868
 31
0.0
  0
LINE
  5
1F0B9
330
18
100
AcDbEntity
  8
C4
100
AcDbLine
 10
331.9210098196909
 20
-3834.851789170868
 30
0.0
 11
339.9210098196909
 21
-3834.851789170868
 31
0.0
  0
LINE
  5
1F0BC
330
18
100
AcDbEntity
  8
C4
100
AcDbLine
 10
142.5210098196858
 20
-3791.950961593208
 30
0.0
 11
262.9210098196904
 21
-3791.950961593207
 31
0.0
  0
LINE
  5
1F0BF
330
18
100
AcDbEntity
  8
C4
100
AcDbLine
 10
262.921009819695
 20
-3773.950961593208
 30
0.0
 11
142.5210098196858
 21
-3773.950961593206
 31
0.0
  0
CIRCLE
  5
1F0C1
330
18
100
AcDbEntity
  8
C4
100
AcDbCircle
 10
250.4210098196909
 20
-3782.950961593207
 30
0.0
 40
2.1
  0
LINE
  5
1F0C2
330
18
100
AcDbEntity
  8
C4
100
AcDbLine
 10
142.5210098196858
 20
-3783.950961593208
 30
0.0
 11
232.9210098196909
 21
-3783.950961593208
 31
0.0
  0
LINE
  5
1F0C3
330
18
100
AcDbEntity
  8
C4
100
AcDbLine
 10
142.5210098196858
 20
-3781.950961593207
 30
0.0
 11
232.9210098196909
 21
-3781.950961593207
 31
0.0
  0
LINE
  5
1F0C6
330
18
100
AcDbEntity
  8
C4
100
AcDbLine
 10
142.5210098196858
 20
-3791.950961593207
 30
0.0
 11
142.5210098196858
 21
-3773.950961593206
 31
0.0
  0
LINE
  5
1F0C7
330
18
100
AcDbEntity
  8
C4
100
AcDbLine
 10
232.9210098196909
 20
-3791.950961593207
 30
0.0
 11
232.9210098196873
 21
-3773.950961593206
 31
0.0
  0
LINE
  5
1F0C8
330
18
100
AcDbEntity
  8
C4
100
AcDbLine
 10
262.9210098196904
 20
-3791.950961593207
 30
0.0
 11
262.921009819695
 21
-3773.950961593208
 31
0.0
  0
ARC
  5
1F0CA
330
18
100
AcDbEntity
  8
C4
100
AcDbCircle
 10
144.0210098196858
 20
-3782.950961593207
 30
0.0
 40
1.0
100
AcDbArc
 50
270.0
 51
90.0
  0
LINE
  5
1F0CB
330
18
100
AcDbEntity
  8
C4
100
AcDbLine
 10
144.0210098196858
 20
-3783.950961593208
 30
0.0
 11
142.5210098196858
 21
-3783.950961593208
 31
0.0
  0
LINE
  5
1F0CC
330
18
100
AcDbEntity
  8
C4
100
AcDbLine
 10
144.0210098196858
 20
-3781.950961593207
 30
0.0
 11
142.5210098196858
 21
-3781.950961593207
 31
0.0
  0
LINE
  5
1F0CD
330
18
100
AcDbEntity
  8
C4
100
AcDbLine
 10
94.92100981968723
 20
-3893.851789170867
 30
0.0
 11
94.92100981968723
 21
-3834.851789170868
 31
0.0
  0
LINE
  5
1F0CE
330
18
100
AcDbEntity
  8
C4
100
AcDbLine
 10
92.92100981968721
 20
-3893.851789170867
 30
0.0
 11
92.92100981968721
 21
-3834.851789170868
 31
0.0
  0
LINE
  5
1F0CF
330
18
100
AcDbEntity
  8
C4
100
AcDbLine
 10
102.9210098196872
 20
-3834.851789170868
 30
0.0
 11
102.9210098196946
 21
-3904.851789170867
 31
0.0
  0
LINE
  5
1F0D1
330
18
100
AcDbEntity
  8
C4
100
AcDbLine
 10
84.9210098196835
 20
-3904.851789170866
 30
0.0
 11
84.92100981968723
 21
-3834.851789170868
 31
0.0
  0
LINE
  5
1F0D7
330
18
100
AcDbEntity
  8
C4
100
AcDbLine
 10
84.9210098196835
 20
-3904.851789170866
 30
0.0
 11
102.9210098196946
 21
-3904.851789170867
 31
0.0
  0
ARC
  5
1F0D9
330
18
100
AcDbEntity
  8
C4
100
AcDbCircle
 10
93.92100981968722
 20
-3893.851789170867
 30
0.0
 40
1.0
100
AcDbArc
 50
180.0
 51
0.0
  0
LINE
  5
1F0DA
330
18
100
AcDbEntity
  8
C4
100
AcDbLine
 10
84.92100981968723
 20
-3834.851789170868
 30
0.0
 11
92.92100981968721
 21
-3834.851789170868
 31
0.0
  0
LINE
  5
1F0DB
330
18
100
AcDbEntity
  8
C4
100
AcDbLine
 10
94.92100981968723
 20
-3834.851789170868
 30
0.0
 11
102.9210098196872
 21
-3834.851789170868
 31
0.0
  0
ARC
  5
1F0DC
330
18
100
AcDbEntity
  8
C4
100
AcDbCircle
 10
93.92100981968722
 20
-3836.351789170868
 30
0.0
 40
1.0
100
AcDbArc
 50
180.0
 51
0.0
  0
LINE
  5
1F0DD
330
18
100
AcDbEntity
  8
C4
100
AcDbLine
 10
92.92100981968721
 20
-3836.351789170868
 30
0.0
 11
92.92100981968721
 21
-3834.851789170868
 31
0.0
  0
LINE
  5
1F0DE
330
18
100
AcDbEntity
  8
C4
100
AcDbLine
 10
94.92100981968723
 20
-3836.351789170868
 30
0.0
 11
94.92100981968723
 21
-3834.851789170868
 31
0.0
  0
ARC
  5
1F0DF
330
18
100
AcDbEntity
  8
C4
100
AcDbCircle
 10
231.4210098196909
 20
-3782.950961593207
 30
0.0
 40
1.0
100
AcDbArc
 50
90.0
 51
270.0
  0
LINE
  5
1F0E0
330
18
100
AcDbEntity
  8
C4
100
AcDbLine
 10
231.4210098196909
 20
-3783.950961593208
 30
0.0
 11
232.9210098196909
 21
-3783.950961593208
 31
0.0
  0
LINE
  5
1F0E1
330
18
100
AcDbEntity
  8
C4
100
AcDbLine
 10
231.4210098196909
 20
-3781.950961593207
 30
0.0
 11
232.9210098196909
 21
-3781.950961593207
 31
0.0
  0
LINE
  5
1F0E3
330
18
100
AcDbEntity
  8
1外形線
 48
3.0
100
AcDbLine
 10
330.9210098196909
 20
-3898.851789170868
 30
0.0
 11
330.9210098196909
 21
-3898.851789170868
 31
0.0
  0
ARC
  5
1F0E4
330
18
100
AcDbEntity
  8
1外形線
 48
3.0
100
AcDbCircle
 10
330.9210098196909
 20
-3897.851789170868
 30
0.0
 40
1.0
100
AcDbArc
 50
270.0
 51
0.0
  0
ARC
  5
1F0E5
330
18
100
AcDbEntity
  8
C4
100
AcDbCircle
 10
330.9210098196909
 20
-3836.351789170868
 30
0.0
 40
1.0
100
AcDbArc
 50
180.0
 51
0.0
  0
ARC
  5
1F1AD
330
18
100
AcDbEntity
  8
1外形線
 48
3.0
100
AcDbCircle
 10
171.5210098196821
 20
-3863.851789170868
 30
0.0
 40
30.0
100
AcDbArc
 50
117.2660444508217
 51
152.7339555491839
  0
ARC
  5
1F1AE
330
18
100
AcDbEntity
  8
1外形線
 48
3.0
100
AcDbCircle
 10
171.5210098196821
 20
-3863.851789170868
 30
0.0
 40
27.5
100
AcDbArc
 50
117.2660444508217
 51
152.7339555491839
  0
ARC
  5
1F1AF
330
18
100
AcDbEntity
  8
1外形線
 48
3.0
100
AcDbCircle
 10
171.5210098196821
 20
-3863.851789170868
 30
0.0
 40
31.0
100
AcDbArc
 50
117.2660444508217
 51
152.7339555491839
  0
ARC
  5
1F1B0
330
18
100
AcDbEntity
  8
1外形線
 48
3.0
100
AcDbCircle
 10
155.5210098196894
 20
-3855.605577919622
 30
0.0
 40
12.0
100
AcDbArc
 50
152.7339555491839
 51
180.0
  0
ARC
  5
1F1B1
330
18
100
AcDbEntity
  8
1外形線
 48
3.0
100
AcDbCircle
 10
155.5210098196894
 20
-3855.605577919622
 30
0.0
 40
9.5
100
AcDbArc
 50
152.7339555491839
 51
180.0
  0
ARC
  5
1F1B2
330
18
100
AcDbEntity
  8
1外形線
 48
3.0
100
AcDbCircle
 10
155.5210098196894
 20
-3855.605577919622
 30
0.0
 40
13.0
100
AcDbArc
 50
152.7339555491839
 51
180.0
  0
ARC
  5
1F1B3
330
18
100
AcDbEntity
  8
1外形線
 48
3.0
100
AcDbCircle
 10
163.2747985684455
 20
-3847.851789170869
 30
0.0
 40
12.0
100
AcDbArc
 50
90.0
 51
117.2660444508217
  0
ARC
  5
1F1B4
330
18
100
AcDbEntity
  8
1外形線
 48
3.0
100
AcDbCircle
 10
163.2747985684455
 20
-3847.851789170869
 30
0.0
 40
9.5
100
AcDbArc
 50
90.0
 51
117.2660444508217
  0
ARC
  5
1F1B5
330
18
100
AcDbEntity
  8
1外形線
 48
3.0
100
AcDbCircle
 10
163.2747985684455
 20
-3847.851789170869
 30
0.0
 40
13.0
100
AcDbArc
 50
90.0
 51
117.2660444508217
  0
LINE
  5
1F1B6
330
18
100
AcDbEntity
  8
1外形線
 48
3.0
100
AcDbLine
 10
212.1672210709276
 20
-3835.851789170868
 30
0.0
 11
187.7210098196865
 21
-3835.851789170868
 31
0.0
  0
LINE
  5
1F1B7
330
18
100
AcDbEntity
  8
1外形線
 48
3.0
100
AcDbLine
 10
212.1672210709276
 20
-3838.351789170868
 30
0.0
 11
187.7210098196865
 21
-3838.351789170868
 31
0.0
  0
LINE
  5
1F1B8
330
18
100
AcDbEntity
  8
1外形線
 48
3.0
100
AcDbLine
 10
212.1672210709276
 20
-3834.851789170868
 30
0.0
 11
187.7210098196865
 21
-3834.851789170868
 31
0.0
  0
ARC
  5
1F1B9
330
18
100
AcDbEntity
  8
1外形線
 48
3.0
100
AcDbCircle
 10
203.9210098196909
 20
-3863.851789170868
 30
0.0
 40
30.0
100
AcDbArc
 50
27.26604445069357
 51
62.733955549391
  0
ARC
  5
1F1BA
330
18
100
AcDbEntity
  8
1外形線
 48
3.0
100
AcDbCircle
 10
203.9210098196909
 20
-3863.851789170868
 30
0.0
 40
27.5
100
AcDbArc
 50
27.26604445069357
 51
62.733955549391
  0
ARC
  5
1F1BB
330
18
100
AcDbEntity
  8
1外形線
 48
3.0
100
AcDbCircle
 10
203.9210098196909
 20
-3863.851789170868
 30
0.0
 40
31.0
100
AcDbArc
 50
27.26604445069357
 51
62.733955549391
  0
ARC
  5
1F1BC
330
18
100
AcDbEntity
  8
1外形線
 48
3.0
100
AcDbCircle
 10
219.9210098196836
 20
-3855.605577919622
 30
0.0
 40
12.0
100
AcDbArc
 50
0.0
 51
27.26604445069357
  0
ARC
  5
1F1BD
330
18
100
AcDbEntity
  8
1外形線
 48
3.0
100
AcDbCircle
 10
219.9210098196836
 20
-3855.605577919622
 30
0.0
 40
9.5
100
AcDbArc
 50
0.0
 51
27.26604445069357
  0
ARC
  5
1F1BE
330
18
100
AcDbEntity
  8
1外形線
 48
3.0
100
AcDbCircle
 10
219.9210098196836
 20
-3855.605577919622
 30
0.0
 40
13.0
100
AcDbArc
 50
0.0
 51
27.26604445069357
  0
ARC
  5
1F1BF
330
18
100
AcDbEntity
  8
1外形線
 48
3.0
100
AcDbCircle
 10
212.1672210709276
 20
-3847.851789170869
 30
0.0
 40
12.0
100
AcDbArc
 50
62.733955549391
 51
90.0
  0
ARC
  5
1F1C0
330
18
100
AcDbEntity
  8
1外形線
 48
3.0
100
AcDbCircle
 10
212.1672210709276
 20
-3847.851789170869
 30
0.0
 40
9.5
100
AcDbArc
 50
62.733955549391
 51
90.0
  0
ARC
  5
1F1C1
330
18
100
AcDbEntity
  8
1外形線
 48
3.0
100
AcDbCircle
 10
212.1672210709276
 20
-3847.851789170869
 30
0.0
 40
13.0
100
AcDbArc
 50
62.733955549391
 51
90.0
  0
LINE
  5
1F5A2
330
18
100
AcDbEntity
  8
1外形線
 48
3.0
100
AcDbLine
 10
164.3989868704757
 20
-3680.473198772807
 30
0.0
 11
165.3989868704751
 21
-3680.473198772807
 31
0.0
  0
LINE
  5
1F5A4
330
18
100
AcDbEntity
  8
1外形線
 48
3.0
100
AcDbLine
 10
142.5210098196854
 20
-3904.851789170868
 30
0.0
 11
143.5210098196858
 21
-3904.851789170868
 31
0.0
  0
LINE
  5
1F5A5
330
18
100
AcDbEntity
  8
1外形線
 48
3.0
100
AcDbLine
 10
321.9210098196909
 20
-3904.851789170884
 30
0.0
 11
339.9210098196909
 21
-3904.851789170868
 31
0.0
  0
LINE
  5
1F5A6
330
18
100
AcDbEntity
  8
1外形線
 48
3.0
100
AcDbLine
 10
321.9210098196656
 20
-3903.851789170874
 30
0.0
 11
339.9210098196909
 21
-3903.851789170868
 31
0.0
  0
LINE
  5
1F5A7
330
18
100
AcDbEntity
  8
1外形線
 48
3.0
100
AcDbLine
 10
324.3989868704537
 20
-3679.473198772812
 30
0.0
 11
342.3989868704794
 21
-3679.473198772806
 31
0.0
  0
LINE
  5
1F5A8
330
18
100
AcDbEntity
  8
1外形線
 48
3.0
100
AcDbLine
 10
324.3989868704793
 20
-3680.473198772821
 30
0.0
 11
342.3989868704794
 21
-3680.47319877282
 31
0.0
  0
ENDSEC
  0
SECTION
  2
OBJECTS
  0
DICTIONARY
  5
C
330
0
100
AcDbDictionary
281
     1
  3
ACAD_CIP_PREVIOUS_PRODUCT_INFO
350
C22C
  3
ACAD_COLOR
350
56E5
  3
ACAD_GROUP
350
D
  3
ACAD_LAYOUT
350
5654
  3
ACAD_MATERIAL
350
56D0
  3
ACAD_MLEADERSTYLE
350
C223
  3
ACAD_MLINESTYLE
350
1B
  3
ACAD_PLOTSETTINGS
350
5655
  3
ACAD_PLOTSTYLENAME
350
5652
  3
ACAD_SCALELIST
350
C211
  3
ACAD_TABLESTYLE
350
56E6
  3
ACAD_VISUALSTYLE
350
56D4
  3
ACDB_RECOMPOSE_DATA
350
1CC4A
  3
ACDBHEADERROUNDTRIPXREC
350
1F5DF
  3
ACDBVARIABLEDICTIONARY
350
12D
  3
DWGPROPS
350
1F5DE
  0
DICTIONARY
  5
5734
330
8
100
AcDbDictionary
280
     1
281
     1
  3
ACAD_XREC_ROUNDTRIP
360
1CC4C
  0
DICTIONARY
  5
56EE
330
2
100
AcDbDictionary
280
     1
281
     1
  3
ACAD_LAYERSTATES
360
56EF
  0
DICTIONARY
  5
C7F2
330
E
100
AcDbDictionary
280
     1
281
     1
  3
ADSK_XREC_LAYER_RECONCILED
360
C7F3
  0
DICTIONARY
  5
C7F4
330
20
100
AcDbDictionary
280
     1
281
     1
  3
ADSK_XREC_LAYER_RECONCILED
360
C7F5
  0
DICTIONARY
  5
C7F6
330
21
100
AcDbDictionary
280
     1
281
     1
  3
ADSK_XREC_LAYER_RECONCILED
360
C7F7
  0
DICTIONARY
  5
C7FA
330
23
100
AcDbDictionary
280
     1
281
     1
  3
ADSK_XREC_LAYER_RECONCILED
360
C7FB
  0
DICTIONARY
  5
C800
330
48B
100
AcDbDictionary
280
     1
281
     1
  3
ADSK_XREC_LAYER_RECONCILED
360
C801
  0
DICTIONARY
  5
1CC78
330
BDD0
100
AcDbDictionary
280
     1
281
     1
  3
ACAD_XREC_ROUNDTRIP
360
1CC79
  0
DICTIONARY
  5
56C2
330
18
100
AcDbDictionary
280
     1
281
     1
  3
ACAD_LAYOUTSELFREF
360
5791
  3
ACAD_SORTENTS
360
59EE
  0
DICTIONARY
  5
56C0
330
15
100
AcDbDictionary
280
     1
281
     1
  3
ACAD_LAYOUTSELFREF
360
5790
  0
XRECORD
  5
C22C
102
{ACAD_REACTORS
330
C
102
}
330
C
100
AcDbXrecord
280
     1
300
ACDLT
300
2012
300
ACDLT_F_S
  0
DICTIONARY
  5
56E5
102
{ACAD_REACTORS
330
C
102
}
330
C
100
AcDbDictionary
281
     1
  0
DICTIONARY
  5
D
102
{ACAD_REACTORS
330
C
102
}
330
C
100
AcDbDictionary
281
     1
  0
DICTIONARY
  5
5654
102
{ACAD_REACTORS
330
C
102
}
330
C
100
AcDbDictionary
281
     1
  3
Model
350
5656
  3
ﾚｲｱｳﾄ1
350
5657
  0
DICTIONARY
  5
56D0
102
{ACAD_REACTORS
330
C
102
}
330
C
100
AcDbDictionary
281
     1
  3
ByBlock
350
56D2
  3
ByLayer
350
56D1
  3
Global
350
56D3
  0
DICTIONARY
  5
C223
102
{ACAD_REACTORS
330
C
102
}
330
C
100
AcDbDictionary
281
     1
  3
Standard
350
C224
  0
DICTIONARY
  5
1B
102
{ACAD_REACTORS
330
C
102
}
330
C
100
AcDbDictionary
281
     1
  3
STANDARD
350
1C
  0
DICTIONARY
  5
5655
102
{ACAD_REACTORS
330
C
102
}
330
C
100
AcDbDictionary
281
     1
  0
ACDBDICTIONARYWDFLT
  5
5652
102
{ACAD_REACTORS
330
C
102
}
330
C
100
AcDbDictionary
281
     1
  3
Normal
350
5653
100
AcDbDictionaryWithDefault
340
5653
  0
DICTIONARY
  5
C211
102
{ACAD_REACTORS
330
C
102
}
330
C
100
AcDbDictionary
281
     1
  3
A0
350
C212
  3
A1
350
C213
  3
A2
350
C214
  3
A3
350
C215
  3
A4
350
C216
  3
A5
350
C217
  3
A6
350
C218
  3
A7
350
C219
  3
A8
350
C21A
  3
A9
350
C21B
  3
B0
350
C21C
  3
B1
350
C21D
  3
B2
350
C21E
  3
B3
350
C21F
  3
B4
350
C220
  3
B5
350
C221
  3
B6
350
C222
  0
DICTIONARY
  5
56E6
102
{ACAD_REACTORS
330
C
102
}
330
C
100
AcDbDictionary
281
     1
  3
Standard
350
56E7
  0
DICTIONARY
  5
56D4
102
{ACAD_REACTORS
330
C
102
}
330
C
100
AcDbDictionary
281
     1
  3
2dWireframe
350
56DA
  3
3D Hidden
350
56DC
  3
3dWireframe
350
56DB
  3
Basic
350
56D9
  3
Brighten
350
56E0
  3
ColorChange
350
56E4
  3
Conceptual
350
56DD
  3
Dim
350
56DF
  3
EdgeColorOff
350
C210
  3
Facepattern
350
56E3
  3
Flat
350
56D5
  3
FlatWithEdges
350
56D6
  3
Gouraud
350
56D7
  3
GouraudWithEdges
350
56D8
  3
Hidden
350
C208
  3
JitterOff
350
C20E
  3
Linepattern
350
56E2
  3
OverhangOff
350
C20F
  3
Realistic
350
56DE
  3
Shaded
350
C20D
  3
Shaded with edges
350
C20C
  3
Shades of Gray
350
C209
  3
Sketchy
350
C20A
  3
Thicken
350
56E1
  3
Wireframe
350
C207
  3
X-Ray
350
C20B
  0
XRECORD
  5
1CC4A
102
{ACAD_REACTORS
330
C
102
}
330
C
100
AcDbXrecord
280
     1
 90
        1
330
56E7
  0
DICTIONARY
  5
1F5DF
102
{ACAD_REACTORS
330
C
102
}
330
C
100
AcDbDictionary
281
     1
  0
DICTIONARY
  5
12D
102
{ACAD_REACTORS
330
C
102
}
330
C
100
AcDbDictionary
281
     1
  3
CANNOSCALE
350
CBEF
  3
CMLEADERSTYLE
350
CBEE
  3
CTABLESTYLE
350
5756
  3
DIMASSOC
350
56CE
  3
INDEXCTL
350
5757
  3
PROJECTNAME
350
5982
  3
SORTENTS
350
12E
  3
XCLIPFRAME
350
1CC90
  0
XRECORD
  5
1F5DE
102
{ACAD_REACTORS
330
C
102
}
330
C
100
AcDbXrecord
280
     1
  1
DWGPROPS COOKIE
  2

  3

  4

  6

  7

  8
ryota.matsumura
  9

300
=
301
=
302
=
303
=
304
=
305
=
306
=
307
=
308
=
309
=
 40
1.548399502314814
 41
2453117.578716192
 42
2456598.722399387
  1

 90
        0
  0
XRECORD
  5
1CC4C
102
{ACAD_REACTORS
330
5734
102
}
330
5734
100
AcDbXrecord
280
     1
102
VTR_0.000_0.000_1.000_1.000_VISUALSTYLE
340
56DA
102
VTR_0.000_0.000_1.000_1.000_GRIDDISPLAY
 70
     3
102
VTR_0.000_0.000_1.000_1.000_GRIDMAJOR
 70
     5
102
VTR_0.000_0.000_1.000_1.000_DEFAULTLIGHTING
280
     1
102
VTR_0.000_0.000_1.000_1.000_DEFAULTLIGHTINGTYPE
 70
     1
102
VTR_0.000_0.000_1.000_1.000_BRIGHTNESS
141
0.0
102
VTR_0.000_0.000_1.000_1.000_CONTRAST
142
0.0
  0
DICTIONARY
  5
56EF
102
{ACAD_REACTORS
330
56EE
102
}
330
56EE
100
AcDbDictionary
281
     1
  0
XRECORD
  5
C7F3
102
{ACAD_REACTORS
330
C7F2
102
}
330
C7F2
100
AcDbXrecord
280
     1
290
     1
  0
XRECORD
  5
C7F5
102
{ACAD_REACTORS
330
C7F4
102
}
330
C7F4
100
AcDbXrecord
280
     1
290
     1
  0
XRECORD
  5
C7F7
102
{ACAD_REACTORS
330
C7F6
102
}
330
C7F6
100
AcDbXrecord
280
     1
290
     1
  0
XRECORD
  5
C7FB
102
{ACAD_REACTORS
330
C7FA
102
}
330
C7FA
100
AcDbXrecord
280
     1
290
     1
  0
XRECORD
  5
C801
102
{ACAD_REACTORS
330
C800
102
}
330
C800
100
AcDbXrecord
280
     1
290
     1
  0
XRECORD
  5
1CC79
102
{ACAD_REACTORS
330
1CC78
102
}
330
1CC78
100
AcDbXrecord
280
     1
102
CAMERAPLOTTABLE
 70
     0
102
VISUALSTYLE
340
56DA
  0
XRECORD
  5
5791
102
{ACAD_REACTORS
330
56C2
102
}
330
56C2
100
AcDbXrecord
280
     1
340
18
  0
SORTENTSTABLE
  5
59EE
102
{ACAD_REACTORS
330
56C2
102
}
330
56C2
100
AcDbSortentsTable
330
18
331
1E183
  5
1E192
331
1E106
  5
1E10E
331
1E17B
  5
1E183
331
1E10F
  5
1E116
331
1E0CE
  5
1E0D7
331
1E0FF
  5
1E106
331
1E174
  5
1E17C
331
1E0E3
  5
1E0EF
331
1E185
  5
1E194
331
1E108
  5
1E110
331
1E17D
  5
1E185
331
1E0EC
  5
1E0F4
331
1E0DC
  5
1E0E3
331
1E11D
  5
1E124
331
1E0F5
  5
1E0FC
331
1E101
  5
1E108
331
1E176
  5
1E17E
331
1E0E5
  5
1E0F2
331
1E0C9
  5
1E0D3
331
1E10A
  5
1E112
331
1E0FA
  5
1E101
331
1E17F
  5
1E18E
331
1E0EE
  5
1E0F6
331
5699
  5
5729
331
1E0DE
  5
1E0E5
331
1E113
  5
1E11A
331
1E0D2
  5
1E0DB
331
1E180
  5
1E18F
331
1E0F7
  5
1E0FE
331
1E103
  5
1E10A
331
1E178
  5
1E180
331
5696
  5
5726
331
1E0CB
  5
1E0D5
331
1E118
  5
1E120
331
1E0E0
  5
1E0EC
331
1E171
  5
1E179
331
1E115
  5
1E11D
331
1E0D4
  5
1E0DD
331
1E182
  5
1E191
331
1E105
  5
1E10D
331
1E17A
  5
1E182
331
1E11A
  5
1E122
331
1E0CD
  5
1E0D6
331
1E0F2
  5
1E0F9
331
1E117
  5
1E11F
331
1E173
  5
1E17B
331
1E184
  5
1E193
331
1E107
  5
1E10F
331
1E0EB
  5
1E0F3
331
1E17C
  5
1E184
331
1E11C
  5
1E123
331
1E0CF
  5
1E0D8
331
1E0DB
  5
1E0E2
331
1E100
  5
1E107
331
565E
  5
5699
331
1E0E4
  5
1E0F1
331
1E175
  5
1E17D
331
1E0ED
  5
1E0F5
331
1E0F9
  5
1E100
331
1E17E
  5
1E18D
331
5698
  5
5728
331
1E11E
  5
1E125
331
1E0DD
  5
1E0E4
331
1E112
  5
1E119
331
1E177
  5
1E17F
331
1E0CA
  5
1E0D4
331
1E0EF
  5
1E0F7
331
1E0FB
  5
1E102
331
1E0D3
  5
1E0DC
331
1E0DF
  5
1E0EB
331
1E114
  5
1E11C
331
1E181
  5
1E190
331
1E104
  5
1E10C
331
5697
  5
5727
331
1E179
  5
1E181
331
1E119
  5
1E121
331
1E0F1
  5
1E0F8
331
1E172
  5
1E17A
331
1E116
  5
1E11E
  0
XRECORD
  5
5790
102
{ACAD_REACTORS
330
56C0
102
}
330
56C0
100
AcDbXrecord
280
     1
340
15
  0
LAYOUT
  5
5656
102
{ACAD_XDICTIONARY
360
1F5E0
102
}
102
{ACAD_REACTORS
330
5654
102
}
330
5654
100
AcDbPlotSettings
  1

  2
PrimoPDF
  4
A3
  6

 40
3.174999952316282
 41
3.174999952316282
 42
3.17498779296875
 43
3.17498779296875
 44
297.0530090332031
 45
420.1583251953125
 46
-1.678192326337976
 47
-1.016623354194194
 48
-6.151717960049609
 49
-3812.12602411938
140
413.8482820399503
141
-3515.126024119382
142
1.0
143
1.01
 70
 11940
 72
     1
 73
     1
 74
     4
  7
INABA-CAD-Canon.ctb
 75
     0
147
0.9601969574436996
148
6.151717960049609
149
3812.12602411938
100
AcDbLayout
  1
Model
 70
     1
 71
     0
 10
0.0
 20
0.0
 11
12.0
 21
9.0
 12
0.0
 22
0.0
 32
0.0
 14
0.0
 24
0.0
 34
0.0
 15
0.0
 25
0.0
 35
0.0
146
0.0
 13
0.0
 23
0.0
 33
0.0
 16
1.0
 26
0.0
 36
0.0
 17
0.0
 27
1.0
 37
0.0
 76
     0
330
18
1001
ACAD_PSEXT
1000
PrimoPDF
1000
PrimoPDF
1000
PrimoPort:
1000

1070
     0
  0
LAYOUT
  5
5657
102
{ACAD_XDICTIONARY
360
1F5E2
102
}
102
{ACAD_REACTORS
330
5654
102
}
330
5654
100
AcDbPlotSettings
  1

  2
Canon LASER SHOT LBP-1710
  4

  6

 40
0.0
 41
0.0
 42
0.0
 43
0.0
 44
0.0
 45
0.0
 46
0.0
 47
0.0
 48
0.0
 49
0.0
140
0.0
141
0.0
142
1.0
143
1.0
 70
   688
 72
     0
 73
     0
 74
     5
  7
INABA-CAD(IKEBE).ctb
 75
    16
147
1.0
148
0.0
149
0.0
100
AcDbLayout
  1
ﾚｲｱｳﾄ1
 70
     1
 71
     1
 10
0.0
 20
0.0
 11
420.0
 21
297.0
 12
0.0
 22
0.0
 32
0.0
 14
26.66999878883363
 24
20.31999878883363
 34
0.0
 15
240.0299890995026
 25
182.8799890995025
 35
0.0
146
0.0
 13
0.0
 23
0.0
 33
0.0
 16
1.0
 26
0.0
 36
0.0
 17
0.0
 27
1.0
 37
0.0
 76
     0
330
15
  0
MATERIAL
  5
56D2
102
{ACAD_XDICTIONARY
360
1CC53
102
}
102
{ACAD_REACTORS
330
56D0
102
}
330
56D0
100
AcDbMaterial
  1
ByBlock
  0
MATERIAL
  5
56D1
102
{ACAD_XDICTIONARY
360
1CC51
102
}
102
{ACAD_REACTORS
330
56D0
102
}
330
56D0
100
AcDbMaterial
  1
ByLayer
  0
MATERIAL
  5
56D3
102
{ACAD_XDICTIONARY
360
1CC55
102
}
102
{ACAD_REACTORS
330
56D0
102
}
330
56D0
100
AcDbMaterial
  1
Global
  0
ACAD_PROXY_OBJECT
  5
C224
102
{ACAD_XDICTIONARY
360
1CC48
102
}
102
{ACAD_REACTORS
330
C223
102
}
330
C223
100
AcDbProxyObject
 90
      499
 91
      520
 95
   983063
 70
     0
 93
      618
310
40901902A4063FBFFFFFE000000000000002040AD7A3703D0AD73F4254DD185B99185C99000000000000000104090141901A00000000000004100000000000000041025764000000000000300FC0
340
12
340
0
340
F
340
0
 94
        0
1001
ACAD_MLEADERVER
1070
     2
1001
ACAD
1000
AcRTDxfName
1000
MLEADERSTYLE
1000
AcRTDxfName
1000
MLEADERSTYLE
1000
AcRTDxfName
1000
MLEADERSTYLE
1000
AcRTDxfName
1000
MLEADERSTYLE
1000
AcRTDxfName
1000
MLEADERSTYLE
1000
AcRTDxfName
1000
MLEADERSTYLE
1000
AcRTDxfName
1000
MLEADERSTYLE
  0
MLINESTYLE
  5
1C
102
{ACAD_REACTORS
330
1B
102
}
330
1B
100
AcDbMlineStyle
  2
STANDARD
 70
     0
  3

 62
   256
 51
90.0
 52
90.0
 71
     2
 49
0.5
 62
   256
  6
BYLAYER
 49
-0.5
 62
   256
  6
BYLAYER
  0
ACDBPLACEHOLDER
  5
5653
102
{ACAD_REACTORS
330
5652
102
}
330
5652
  0
ACAD_PROXY_OBJECT
  5
C212
102
{ACAD_REACTORS
330
C211
102
}
330
C211
100
AcDbProxyObject
 90
      499
 91
      519
 95
   983063
 70
     0
 93
       49
310
904313A3100580
 94
        0
1001
ACAD
1000
AcRTDxfName
1000
SCALE
1000
AcRTDxfName
1000
SCALE
1000
AcRTDxfName
1000
SCALE
1000
AcRTDxfName
1000
SCALE
1000
AcRTDxfName
1000
SCALE
1000
AcRTDxfName
1000
SCALE
1000
AcRTDxfName
1000
SCALE
  0
ACAD_PROXY_OBJECT
  5
C213
102
{ACAD_REACTORS
330
C211
102
}
330
C211
100
AcDbProxyObject
 90
      499
 91
      519
 95
   983063
 70
     0
 93
      113
310
904313A32004000000000000004000
 94
        0
1001
ACAD
1000
AcRTDxfName
1000
SCALE
1000
AcRTDxfName
1000
SCALE
1000
AcRTDxfName
1000
SCALE
1000
AcRTDxfName
1000
SCALE
1000
AcRTDxfName
1000
SCALE
1000
AcRTDxfName
1000
SCALE
1000
AcRTDxfName
1000
SCALE
  0
ACAD_PROXY_OBJECT
  5
C214
102
{ACAD_REACTORS
330
C211
102
}
330
C211
100
AcDbProxyObject
 90
      499
 91
      519
 95
   983063
 70
     0
 93
      113
310
904313A34004000000000000104000
 94
        0
1001
ACAD
1000
AcRTDxfName
1000
SCALE
1000
AcRTDxfName
1000
SCALE
1000
AcRTDxfName
1000
SCALE
1000
AcRTDxfName
1000
SCALE
1000
AcRTDxfName
1000
SCALE
1000
AcRTDxfName
1000
SCALE
1000
AcRTDxfName
1000
SCALE
  0
ACAD_PROXY_OBJECT
  5
C215
102
{ACAD_REACTORS
330
C211
102
}
330
C211
100
AcDbProxyObject
 90
      499
 91
      519
 95
   983063
 70
     0
 93
      113
310
904313A35004000000000000144000
 94
        0
1001
ACAD
1000
AcRTDxfName
1000
SCALE
1000
AcRTDxfName
1000
SCALE
1000
AcRTDxfName
1000
SCALE
1000
AcRTDxfName
1000
SCALE
1000
AcRTDxfName
1000
SCALE
1000
AcRTDxfName
1000
SCALE
1000
AcRTDxfName
1000
SCALE
  0
ACAD_PROXY_OBJECT
  5
C216
102
{ACAD_REACTORS
330
C211
102
}
330
C211
100
AcDbProxyObject
 90
      499
 91
      519
 95
   983063
 70
     0
 93
      113
310
904313A38004000000000000204000
 94
        0
1001
ACAD
1000
AcRTDxfName
1000
SCALE
1000
AcRTDxfName
1000
SCALE
1000
AcRTDxfName
1000
SCALE
1000
AcRTDxfName
1000
SCALE
1000
AcRTDxfName
1000
SCALE
1000
AcRTDxfName
1000
SCALE
1000
AcRTDxfName
1000
SCALE
  0
ACAD_PROXY_OBJECT
  5
C217
102
{ACAD_REACTORS
330
C211
102
}
330
C211
100
AcDbProxyObject
 90
      499
 91
      519
 95
   983063
 70
     0
 93
      121
310
905313A313000400000000000024402C
 94
        0
1001
ACAD
1000
AcRTDxfName
1000
SCALE
1000
AcRTDxfName
1000
SCALE
1000
AcRTDxfName
1000
SCALE
1000
AcRTDxfName
1000
SCALE
1000
AcRTDxfName
1000
SCALE
1000
AcRTDxfName
1000
SCALE
1000
AcRTDxfName
1000
SCALE
  0
ACAD_PROXY_OBJECT
  5
C218
102
{ACAD_REACTORS
330
C211
102
}
330
C211
100
AcDbProxyObject
 90
      499
 91
      519
 95
   983063
 70
     0
 93
      121
310
905313A313600400000000000030402C
 94
        0
1001
ACAD
1000
AcRTDxfName
1000
SCALE
1000
AcRTDxfName
1000
SCALE
1000
AcRTDxfName
1000
SCALE
1000
AcRTDxfName
1000
SCALE
1000
AcRTDxfName
1000
SCALE
1000
AcRTDxfName
1000
SCALE
1000
AcRTDxfName
1000
SCALE
  0
ACAD_PROXY_OBJECT
  5
C219
102
{ACAD_REACTORS
330
C211
102
}
330
C211
100
AcDbProxyObject
 90
      499
 91
      519
 95
   983063
 70
     0
 93
      121
310
905313A323000400000000000034402C
 94
        0
1001
ACAD
1000
AcRTDxfName
1000
SCALE
1000
AcRTDxfName
1000
SCALE
1000
AcRTDxfName
1000
SCALE
1000
AcRTDxfName
1000
SCALE
1000
AcRTDxfName
1000
SCALE
1000
AcRTDxfName
1000
SCALE
1000
AcRTDxfName
1000
SCALE
  0
ACAD_PROXY_OBJECT
  5
C21A
102
{ACAD_REACTORS
330
C211
102
}
330
C211
100
AcDbProxyObject
 90
      499
 91
      519
 95
   983063
 70
     0
 93
      121
310
905313A33300040000000000003E402C
 94
        0
1001
ACAD
1000
AcRTDxfName
1000
SCALE
1000
AcRTDxfName
1000
SCALE
1000
AcRTDxfName
1000
SCALE
1000
AcRTDxfName
1000
SCALE
1000
AcRTDxfName
1000
SCALE
1000
AcRTDxfName
1000
SCALE
1000
AcRTDxfName
1000
SCALE
  0
ACAD_PROXY_OBJECT
  5
C21B
102
{ACAD_REACTORS
330
C211
102
}
330
C211
100
AcDbProxyObject
 90
      499
 91
      519
 95
   983063
 70
     0
 93
      121
310
905313A343000400000000000044402C
 94
        0
1001
ACAD
1000
AcRTDxfName
1000
SCALE
1000
AcRTDxfName
1000
SCALE
1000
AcRTDxfName
1000
SCALE
1000
AcRTDxfName
1000
SCALE
1000
AcRTDxfName
1000
SCALE
1000
AcRTDxfName
1000
SCALE
1000
AcRTDxfName
1000
SCALE
  0
ACAD_PROXY_OBJECT
  5
C21C
102
{ACAD_REACTORS
330
C211
102
}
330
C211
100
AcDbProxyObject
 90
      499
 91
      519
 95
   983063
 70
     0
 93
      121
310
905313A353000400000000000049402C
 94
        0
1001
ACAD
1000
AcRTDxfName
1000
SCALE
1000
AcRTDxfName
1000
SCALE
1000
AcRTDxfName
1000
SCALE
1000
AcRTDxfName
1000
SCALE
1000
AcRTDxfName
1000
SCALE
1000
AcRTDxfName
1000
SCALE
1000
AcRTDxfName
1000
SCALE
  0
ACAD_PROXY_OBJECT
  5
C21D
102
{ACAD_REACTORS
330
C211
102
}
330
C211
100
AcDbProxyObject
 90
      499
 91
      519
 95
   983063
 70
     0
 93
      129
310
906313A313030004000000000000594000
 94
        0
1001
ACAD
1000
AcRTDxfName
1000
SCALE
1000
AcRTDxfName
1000
SCALE
1000
AcRTDxfName
1000
SCALE
1000
AcRTDxfName
1000
SCALE
1000
AcRTDxfName
1000
SCALE
1000
AcRTDxfName
1000
SCALE
1000
AcRTDxfName
1000
SCALE
  0
ACAD_PROXY_OBJECT
  5
C21E
102
{ACAD_REACTORS
330
C211
102
}
330
C211
100
AcDbProxyObject
 90
      499
 91
      519
 95
   983063
 70
     0
 93
      113
310
904323A31000000000000000010100
 94
        0
1001
ACAD
1000
AcRTDxfName
1000
SCALE
1000
AcRTDxfName
1000
SCALE
1000
AcRTDxfName
1000
SCALE
1000
AcRTDxfName
1000
SCALE
1000
AcRTDxfName
1000
SCALE
1000
AcRTDxfName
1000
SCALE
1000
AcRTDxfName
1000
SCALE
  0
ACAD_PROXY_OBJECT
  5
C21F
102
{ACAD_REACTORS
330
C211
102
}
330
C211
100
AcDbProxyObject
 90
      499
 91
      519
 95
   983063
 70
     0
 93
      113
310
904343A31000000000000000410100
 94
        0
1001
ACAD
1000
AcRTDxfName
1000
SCALE
1000
AcRTDxfName
1000
SCALE
1000
AcRTDxfName
1000
SCALE
1000
AcRTDxfName
1000
SCALE
1000
AcRTDxfName
1000
SCALE
1000
AcRTDxfName
1000
SCALE
1000
AcRTDxfName
1000
SCALE
  0
ACAD_PROXY_OBJECT
  5
C220
102
{ACAD_REACTORS
330
C211
102
}
330
C211
100
AcDbProxyObject
 90
      499
 91
      519
 95
   983063
 70
     0
 93
      113
310
904383A31000000000000000810100
 94
        0
1001
ACAD
1000
AcRTDxfName
1000
SCALE
1000
AcRTDxfName
1000
SCALE
1000
AcRTDxfName
1000
SCALE
1000
AcRTDxfName
1000
SCALE
1000
AcRTDxfName
1000
SCALE
1000
AcRTDxfName
1000
SCALE
1000
AcRTDxfName
1000
SCALE
  0
ACAD_PROXY_OBJECT
  5
C221
102
{ACAD_REACTORS
330
C211
102
}
330
C211
100
AcDbProxyObject
 90
      499
 91
      519
 95
   983063
 70
     0
 93
      121
310
90531303A3100000000000000091012C
 94
        0
1001
ACAD
1000
AcRTDxfName
1000
SCALE
1000
AcRTDxfName
1000
SCALE
1000
AcRTDxfName
1000
SCALE
1000
AcRTDxfName
1000
SCALE
1000
AcRTDxfName
1000
SCALE
1000
AcRTDxfName
1000
SCALE
1000
AcRTDxfName
1000
SCALE
  0
ACAD_PROXY_OBJECT
  5
C222
102
{ACAD_REACTORS
330
C211
102
}
330
C211
100
AcDbProxyObject
 90
      499
 91
      519
 95
   983063
 70
     0
 93
      129
310
9063130303A31000000000000001650100
 94
        0
1001
ACAD
1000
AcRTDxfName
1000
SCALE
1000
AcRTDxfName
1000
SCALE
1000
AcRTDxfName
1000
SCALE
1000
AcRTDxfName
1000
SCALE
1000
AcRTDxfName
1000
SCALE
1000
AcRTDxfName
1000
SCALE
1000
AcRTDxfName
1000
SCALE
  0
TABLESTYLE
  5
56E7
102
{ACAD_XDICTIONARY
360
CB81
102
}
102
{ACAD_REACTORS
330
56E6
102
}
330
56E6
100
AcDbTableStyle
  3
Standard
 70
     0
 71
     0
 40
1.5
 41
1.5
280
     0
281
     0
  7
STANDARD
140
4.5
170
     2
 62
     0
 63
     7
283
     0
274
    -2
284
     1
 64
     0
275
    -2
285
     1
 65
     0
276
    -2
286
     1
 66
     0
277
    -2
287
     1
 67
     0
278
    -2
288
     1
 68
     0
279
    -2
289
     1
 69
     0
  7
STANDARD
140
6.0
170
     5
 62
     0
 63
     7
283
     0
274
    -2
284
     1
 64
     0
275
    -2
285
     1
 65
     0
276
    -2
286
     1
 66
     0
277
    -2
287
     1
 67
     0
278
    -2
288
     1
 68
     0
279
    -2
289
     1
 69
     0
  7
STANDARD
140
4.5
170
     5
 62
     0
 63
     7
283
     0
274
    -2
284
     1
 64
     0
275
    -2
285
     1
 65
     0
276
    -2
286
     1
 66
     0
277
    -2
287
     1
 67
     0
278
    -2
288
     1
 68
     0
279
    -2
289
     1
 69
     0
  0
ACAD_PROXY_OBJECT
  5
56DA
102
{ACAD_XDICTIONARY
360
1CC61
102
}
102
{ACAD_REACTORS
330
56D4
102
}
330
56D4
100
AcDbProxyObject
 90
      499
 91
      511
 95
   983063
 70
     0
 93
      444
310
430C9915DA5C99599C985B59401049028333333333333E3BF0000000000000FB0107901411070040501600405405064090741402480A0340
 94
        0
1001
ACAD
1000
AcRTDxfName
1000
VISUALSTYLE
1000
AcRTDxfName
1000
VISUALSTYLE
1000
AcRTDxfName
1000
VISUALSTYLE
1000
AcRTDxfName
1000
VISUALSTYLE
1000
AcDbSavedByObjectVersion
1070
     0
1000
AcRTDxfName
1000
VISUALSTYLE
1000
AcRTDxfName
1000
VISUALSTYLE
1000
AcRTDxfName
1000
VISUALSTYLE
1000
AcRTDxfName
1000
VISUALSTYLE
1000
AcRTDxfName
1000
VISUALSTYLE
1000
AcRTDxfName
1000
VISUALSTYLE
1000
AcRTDxfName
1000
VISUALSTYLE
  0
ACAD_PROXY_OBJECT
  5
56DC
102
{ACAD_XDICTIONARY
360
1CC65
102
}
102
{ACAD_REACTORS
330
56D4
102
}
330
56D4
100
AcDbProxyObject
 90
      499
 91
      511
 95
   983063
 70
     0
 93
      508
310
428CD108121A5919195B8010640502408333333333333E3BF0000000000000FB01079024090700405020000000000001110200405405064090740C02480A0340
 94
        0
1001
ACAD
1000
AcRTDxfName
1000
VISUALSTYLE
1000
AcRTDxfName
1000
VISUALSTYLE
1000
AcRTDxfName
1000
VISUALSTYLE
1000
AcRTDxfName
1000
VISUALSTYLE
1000
AcDbSavedByObjectVersion
1070
     0
1000
AcRTDxfName
1000
VISUALSTYLE
1000
AcRTDxfName
1000
VISUALSTYLE
1000
AcRTDxfName
1000
VISUALSTYLE
1000
AcRTDxfName
1000
VISUALSTYLE
1000
AcRTDxfName
1000
VISUALSTYLE
1000
AcRTDxfName
1000
VISUALSTYLE
1000
AcRTDxfName
1000
VISUALSTYLE
  0
ACAD_PROXY_OBJECT
  5
56DB
102
{ACAD_XDICTIONARY
360
1CC63
102
}
102
{ACAD_REACTORS
330
56D4
102
}
330
56D4
100
AcDbProxyObject
 90
      499
 91
      511
 95
   983063
 70
     0
 93
      444
310
430CD915DA5C99599C985B59401059028333333333333E3BF0000000000000FB0107901411070040501600405405064090741402480A0341
 94
        0
1001
ACAD
1000
AcRTDxfName
1000
VISUALSTYLE
1000
AcRTDxfName
1000
VISUALSTYLE
1000
AcRTDxfName
1000
VISUALSTYLE
1000
AcRTDxfName
1000
VISUALSTYLE
1000
AcDbSavedByObjectVersion
1070
     0
1000
AcRTDxfName
1000
VISUALSTYLE
1000
AcRTDxfName
1000
VISUALSTYLE
1000
AcRTDxfName
1000
VISUALSTYLE
1000
AcRTDxfName
1000
VISUALSTYLE
1000
AcRTDxfName
1000
VISUALSTYLE
1000
AcRTDxfName
1000
VISUALSTYLE
1000
AcRTDxfName
1000
VISUALSTYLE
  0
ACAD_PROXY_OBJECT
  5
56D9
102
{ACAD_XDICTIONARY
360
1CC5F
102
}
102
{ACAD_REACTORS
330
56D4
102
}
330
56D4
100
AcDbProxyObject
 90
      499
 91
      511
 95
   983063
 70
     0
 93
      396
310
4190985CDA58C0107406404333333333333E3BF0000000000000FB0107A41107004050150841D405064090741402480A0359
 94
        0
1001
ACAD
1000
AcRTDxfName
1000
VISUALSTYLE
1000
AcRTDxfName
1000
VISUALSTYLE
1000
AcRTDxfName
1000
VISUALSTYLE
1000
AcRTDxfName
1000
VISUALSTYLE
1000
AcDbSavedByObjectVersion
1070
     0
1000
AcRTDxfName
1000
VISUALSTYLE
1000
AcRTDxfName
1000
VISUALSTYLE
1000
AcRTDxfName
1000
VISUALSTYLE
1000
AcRTDxfName
1000
VISUALSTYLE
1000
AcRTDxfName
1000
VISUALSTYLE
1000
AcRTDxfName
1000
VISUALSTYLE
1000
AcRTDxfName
1000
VISUALSTYLE
  0
ACAD_PROXY_OBJECT
  5
56E0
102
{ACAD_XDICTIONARY
360
1CC6D
102
}
102
{ACAD_REACTORS
330
56D4
102
}
330
56D4
100
AcDbProxyObject
 90
      499
 91
      511
 95
   983063
 70
     0
 93
      436
310
42509C9A59DA1D195B8010C409028333333333333E3BF0000000000000FB010790141107004050150841D405064090741402480A029951
 94
        0
1001
ACAD
1000
AcRTDxfName
1000
VISUALSTYLE
1000
AcRTDxfName
1000
VISUALSTYLE
1000
AcRTDxfName
1000
VISUALSTYLE
1000
AcRTDxfName
1000
VISUALSTYLE
1000
AcDbSavedByObjectVersion
1070
     0
1000
AcRTDxfName
1000
VISUALSTYLE
1000
AcRTDxfName
1000
VISUALSTYLE
1000
AcRTDxfName
1000
VISUALSTYLE
1000
AcRTDxfName
1000
VISUALSTYLE
1000
AcRTDxfName
1000
VISUALSTYLE
1000
AcRTDxfName
1000
VISUALSTYLE
1000
AcRTDxfName
1000
VISUALSTYLE
  0
ACAD_PROXY_OBJECT
  5
56E4
102
{ACAD_XDICTIONARY
360
1CC75
102
}
102
{ACAD_REACTORS
330
56D4
102
}
330
56D4
100
AcDbProxyObject
 90
      499
 91
      511
 95
   983063
 70
     0
 93
      460
310
4310DBDB1BDC90DA185B99D9401104090240C333333333333E3BF0000000000000FB0108901411070040501508421405064090741402480A0359
 94
        0
1001
ACAD
1000
AcRTDxfName
1000
VISUALSTYLE
1000
AcRTDxfName
1000
VISUALSTYLE
1000
AcRTDxfName
1000
VISUALSTYLE
1000
AcRTDxfName
1000
VISUALSTYLE
1000
AcDbSavedByObjectVersion
1070
     0
1000
AcRTDxfName
1000
VISUALSTYLE
1000
AcRTDxfName
1000
VISUALSTYLE
1000
AcRTDxfName
1000
VISUALSTYLE
1000
AcRTDxfName
1000
VISUALSTYLE
1000
AcRTDxfName
1000
VISUALSTYLE
1000
AcRTDxfName
1000
VISUALSTYLE
1000
AcRTDxfName
1000
VISUALSTYLE
  0
ACAD_PROXY_OBJECT
  5
56DD
102
{ACAD_XDICTIONARY
360
1CC67
102
}
102
{ACAD_REACTORS
330
56D4
102
}
330
56D4
100
AcDbProxyObject
 90
      499
 91
      511
 95
   983063
 70
     0
 93
      508
310
42D0DBDB98D95C1D1D585B0010940D028333333333333E3BF0000000000000FB0107902409070040501000000000000111010841D405064090740C02480A0340
 94
        0
1001
ACAD
1000
AcRTDxfName
1000
VISUALSTYLE
1000
AcRTDxfName
1000
VISUALSTYLE
1000
AcRTDxfName
1000
VISUALSTYLE
1000
AcRTDxfName
1000
VISUALSTYLE
1000
AcDbSavedByObjectVersion
1070
     0
1000
AcRTDxfName
1000
VISUALSTYLE
1000
AcRTDxfName
1000
VISUALSTYLE
1000
AcRTDxfName
1000
VISUALSTYLE
1000
AcRTDxfName
1000
VISUALSTYLE
1000
AcRTDxfName
1000
VISUALSTYLE
1000
AcRTDxfName
1000
VISUALSTYLE
1000
AcRTDxfName
1000
VISUALSTYLE
  0
ACAD_PROXY_OBJECT
  5
56DF
102
{ACAD_XDICTIONARY
360
1CC6B
102
}
102
{ACAD_REACTORS
330
56D4
102
}
330
56D4
100
AcDbProxyObject
 90
      499
 91
      511
 95
   983063
 70
     0
 93
      420
310
41111A5B4010B409028333333333333E3BF0000000000000FB010790141107004050150841D405064090741402480A02677FFFFFD9
 94
        0
1001
ACAD
1000
AcRTDxfName
1000
VISUALSTYLE
1000
AcRTDxfName
1000
VISUALSTYLE
1000
AcRTDxfName
1000
VISUALSTYLE
1000
AcRTDxfName
1000
VISUALSTYLE
1000
AcDbSavedByObjectVersion
1070
     0
1000
AcRTDxfName
1000
VISUALSTYLE
1000
AcRTDxfName
1000
VISUALSTYLE
1000
AcRTDxfName
1000
VISUALSTYLE
1000
AcRTDxfName
1000
VISUALSTYLE
1000
AcRTDxfName
1000
VISUALSTYLE
1000
AcRTDxfName
1000
VISUALSTYLE
1000
AcRTDxfName
1000
VISUALSTYLE
  0
ACAD_PROXY_OBJECT
  5
C210
102
{ACAD_XDICTIONARY
360
1CC8C
102
}
102
{ACAD_REACTORS
330
56D4
102
}
330
56D4
100
AcDbProxyObject
 90
      499
 91
      511
 95
   983063
 70
     0
 93
      460
310
43515919D950DBDB1BDC93D99980116409028333333333333E3BF0000000000000FB010790141107004050150841D405064090741402480A0359
 94
        0
1001
ACAD
1000
AcDbSavedByObjectVersion
1070
     0
1000
AcRTDxfName
1000
VISUALSTYLE
1000
AcRTDxfName
1000
VISUALSTYLE
1000
AcRTDxfName
1000
VISUALSTYLE
1000
AcRTDxfName
1000
VISUALSTYLE
1000
AcRTDxfName
1000
VISUALSTYLE
1000
AcRTDxfName
1000
VISUALSTYLE
1000
AcRTDxfName
1000
VISUALSTYLE
  0
ACAD_PROXY_OBJECT
  5
56E3
102
{ACAD_XDICTIONARY
360
1CC73
102
}
102
{ACAD_REACTORS
330
56D4
102
}
330
56D4
100
AcDbProxyObject
 90
      499
 91
      511
 95
   983063
 70
     0
 93
      452
310
43119858D95C185D1D195C9B8010F409028333333333333E3BF0000000000000FB010790141107004050150841D405064090741402480A0359
 94
        0
1001
ACAD
1000
AcRTDxfName
1000
VISUALSTYLE
1000
AcRTDxfName
1000
VISUALSTYLE
1000
AcRTDxfName
1000
VISUALSTYLE
1000
AcRTDxfName
1000
VISUALSTYLE
1000
AcDbSavedByObjectVersion
1070
     0
1000
AcRTDxfName
1000
VISUALSTYLE
1000
AcRTDxfName
1000
VISUALSTYLE
1000
AcRTDxfName
1000
VISUALSTYLE
1000
AcRTDxfName
1000
VISUALSTYLE
1000
AcRTDxfName
1000
VISUALSTYLE
1000
AcRTDxfName
1000
VISUALSTYLE
1000
AcRTDxfName
1000
VISUALSTYLE
  0
ACAD_PROXY_OBJECT
  5
56D5
102
{ACAD_XDICTIONARY
360
1CC57
102
}
102
{ACAD_REACTORS
330
56D4
102
}
330
56D4
100
AcDbProxyObject
 90
      499
 91
      511
 95
   983063
 70
     0
 93
      396
310
41519B185D00240901404333333333333E3BF0000000000000F9010740A41107004050150841D405064090741402480A1B59
 94
        0
1001
ACAD
1000
AcRTDxfName
1000
VISUALSTYLE
1000
AcRTDxfName
1000
VISUALSTYLE
1000
AcRTDxfName
1000
VISUALSTYLE
1000
AcRTDxfName
1000
VISUALSTYLE
1000
AcDbSavedByObjectVersion
1070
     0
1000
AcRTDxfName
1000
VISUALSTYLE
1000
AcRTDxfName
1000
VISUALSTYLE
1000
AcRTDxfName
1000
VISUALSTYLE
1000
AcRTDxfName
1000
VISUALSTYLE
1000
AcRTDxfName
1000
VISUALSTYLE
1000
AcRTDxfName
1000
VISUALSTYLE
1000
AcRTDxfName
1000
VISUALSTYLE
  0
ACAD_PROXY_OBJECT
  5
56D6
102
{ACAD_XDICTIONARY
360
1CC59
102
}
102
{ACAD_REACTORS
330
56D4
102
}
330
56D4
100
AcDbProxyObject
 90
      499
 91
      511
 95
   983063
 70
     0
 93
      484
310
43919B185D15DA5D1A115919D95CC010140901404333333333333E3BF0000000000000F9010740901411070040501600405405064090741402480A1B54
 94
        0
1001
ACAD
1000
AcRTDxfName
1000
VISUALSTYLE
1000
AcRTDxfName
1000
VISUALSTYLE
1000
AcRTDxfName
1000
VISUALSTYLE
1000
AcRTDxfName
1000
VISUALSTYLE
1000
AcDbSavedByObjectVersion
1070
     0
1000
AcRTDxfName
1000
VISUALSTYLE
1000
AcRTDxfName
1000
VISUALSTYLE
1000
AcRTDxfName
1000
VISUALSTYLE
1000
AcRTDxfName
1000
VISUALSTYLE
1000
AcRTDxfName
1000
VISUALSTYLE
1000
AcRTDxfName
1000
VISUALSTYLE
1000
AcRTDxfName
1000
VISUALSTYLE
  0
ACAD_PROXY_OBJECT
  5
56D7
102
{ACAD_XDICTIONARY
360
1CC5B
102
}
102
{ACAD_REACTORS
330
56D4
102
}
330
56D4
100
AcDbProxyObject
 90
      499
 91
      511
 95
   983063
 70
     0
 93
      420
310
4211DBDD5C985D590010240902404333333333333E3BF0000000000000F9010740A411070040501641D405064090741402480A1B50
 94
        0
1001
ACAD
1000
AcRTDxfName
1000
VISUALSTYLE
1000
AcRTDxfName
1000
VISUALSTYLE
1000
AcRTDxfName
1000
VISUALSTYLE
1000
AcRTDxfName
1000
VISUALSTYLE
1000
AcDbSavedByObjectVersion
1070
     0
1000
AcRTDxfName
1000
VISUALSTYLE
1000
AcRTDxfName
1000
VISUALSTYLE
1000
AcRTDxfName
1000
VISUALSTYLE
1000
AcRTDxfName
1000
VISUALSTYLE
1000
AcRTDxfName
1000
VISUALSTYLE
1000
AcRTDxfName
1000
VISUALSTYLE
1000
AcRTDxfName
1000
VISUALSTYLE
  0
ACAD_PROXY_OBJECT
  5
56D8
102
{ACAD_XDICTIONARY
360
1CC5D
102
}
102
{ACAD_REACTORS
330
56D4
102
}
330
56D4
100
AcDbProxyObject
 90
      499
 91
      511
 95
   983063
 70
     0
 93
      508
310
4451DBDD5C985D5915DA5D1A115919D95CC010340902404333333333333E3BF0000000000000F9010740901411070040501600405405064090741402480A1B50
 94
        0
1001
ACAD
1000
AcRTDxfName
1000
VISUALSTYLE
1000
AcRTDxfName
1000
VISUALSTYLE
1000
AcRTDxfName
1000
VISUALSTYLE
1000
AcRTDxfName
1000
VISUALSTYLE
1000
AcDbSavedByObjectVersion
1070
     0
1000
AcRTDxfName
1000
VISUALSTYLE
1000
AcRTDxfName
1000
VISUALSTYLE
1000
AcRTDxfName
1000
VISUALSTYLE
1000
AcRTDxfName
1000
VISUALSTYLE
1000
AcRTDxfName
1000
VISUALSTYLE
1000
AcRTDxfName
1000
VISUALSTYLE
1000
AcRTDxfName
1000
VISUALSTYLE
  0
ACAD_PROXY_OBJECT
  5
C208
102
{ACAD_XDICTIONARY
360
1CC7C
102
}
102
{ACAD_REACTORS
330
56D4
102
}
330
56D4
100
AcDbProxyObject
 90
      499
 91
      511
 95
   983063
 70
     0
 93
      484
310
41D21A5919195B8010640502408333333333333E3BF0000000000000FB01079024090700405020000000000001110200405405064090740C02480A0344
 94
        0
1001
ACAD
1000
AcDbSavedByObjectVersion
1070
     0
1000
AcRTDxfName
1000
VISUALSTYLE
1000
AcRTDxfName
1000
VISUALSTYLE
1000
AcRTDxfName
1000
VISUALSTYLE
1000
AcRTDxfName
1000
VISUALSTYLE
1000
AcRTDxfName
1000
VISUALSTYLE
1000
AcRTDxfName
1000
VISUALSTYLE
1000
AcRTDxfName
1000
VISUALSTYLE
  0
ACAD_PROXY_OBJECT
  5
C20E
102
{ACAD_XDICTIONARY
360
1CC88
102
}
102
{ACAD_REACTORS
330
56D4
102
}
330
56D4
100
AcDbProxyObject
 90
      499
 91
      511
 95
   983063
 70
     0
 93
      436
310
42929A5D1D195C93D99980114409028333333333333E3BF0000000000000FB010790141107004050150A41D405064090741402480A0351
 94
        0
1001
ACAD
1000
AcDbSavedByObjectVersion
1070
     0
1000
AcRTDxfName
1000
VISUALSTYLE
1000
AcRTDxfName
1000
VISUALSTYLE
1000
AcRTDxfName
1000
VISUALSTYLE
1000
AcRTDxfName
1000
VISUALSTYLE
1000
AcRTDxfName
1000
VISUALSTYLE
1000
AcRTDxfName
1000
VISUALSTYLE
1000
AcRTDxfName
1000
VISUALSTYLE
  0
ACAD_PROXY_OBJECT
  5
56E2
102
{ACAD_XDICTIONARY
360
1CC71
102
}
102
{ACAD_REACTORS
330
56D4
102
}
330
56D4
100
AcDbProxyObject
 90
      499
 91
      511
 95
   983063
 70
     0
 93
      452
310
43131A5B995C185D1D195C9B8010E409028333333333333E3BF0000000000000FB010790141107004050750841D405064090741402483A0359
 94
        0
1001
ACAD
1000
AcRTDxfName
1000
VISUALSTYLE
1000
AcRTDxfName
1000
VISUALSTYLE
1000
AcRTDxfName
1000
VISUALSTYLE
1000
AcRTDxfName
1000
VISUALSTYLE
1000
AcDbSavedByObjectVersion
1070
     0
1000
AcRTDxfName
1000
VISUALSTYLE
1000
AcRTDxfName
1000
VISUALSTYLE
1000
AcRTDxfName
1000
VISUALSTYLE
1000
AcRTDxfName
1000
VISUALSTYLE
1000
AcRTDxfName
1000
VISUALSTYLE
1000
AcRTDxfName
1000
VISUALSTYLE
1000
AcRTDxfName
1000
VISUALSTYLE
  0
ACAD_PROXY_OBJECT
  5
C20F
102
{ACAD_XDICTIONARY
360
1CC8A
102
}
102
{ACAD_REACTORS
330
56D4
102
}
330
56D4
100
AcDbProxyObject
 90
      499
 91
      511
 95
   983063
 70
     0
 93
      452
310
4313DD995C9A185B99D3D99980115409028333333333333E3BF0000000000000FB010790141107004050150941D405064090741402480A0359
 94
        0
1001
ACAD
1000
AcDbSavedByObjectVersion
1070
     0
1000
AcRTDxfName
1000
VISUALSTYLE
1000
AcRTDxfName
1000
VISUALSTYLE
1000
AcRTDxfName
1000
VISUALSTYLE
1000
AcRTDxfName
1000
VISUALSTYLE
1000
AcRTDxfName
1000
VISUALSTYLE
1000
AcRTDxfName
1000
VISUALSTYLE
1000
AcRTDxfName
1000
VISUALSTYLE
  0
ACAD_PROXY_OBJECT
  5
56DE
102
{ACAD_XDICTIONARY
360
1CC69
102
}
102
{ACAD_REACTORS
330
56D4
102
}
330
56D4
100
AcDbProxyObject
 90
      499
 91
      511
 95
   983063
 70
     0
 93
      428
310
429499585B1A5CDD1A58C0108409028333333333333E3BF0000000000000FB01079019070040501508421405064090741402480A1B41
 94
        0
1001
ACAD
1000
AcRTDxfName
1000
VISUALSTYLE
1000
AcRTDxfName
1000
VISUALSTYLE
1000
AcRTDxfName
1000
VISUALSTYLE
1000
AcRTDxfName
1000
VISUALSTYLE
1000
AcDbSavedByObjectVersion
1070
     0
1000
AcRTDxfName
1000
VISUALSTYLE
1000
AcRTDxfName
1000
VISUALSTYLE
1000
AcRTDxfName
1000
VISUALSTYLE
1000
AcRTDxfName
1000
VISUALSTYLE
1000
AcRTDxfName
1000
VISUALSTYLE
1000
AcRTDxfName
1000
VISUALSTYLE
1000
AcRTDxfName
1000
VISUALSTYLE
  0
ACAD_PROXY_OBJECT
  5
C20D
102
{ACAD_XDICTIONARY
360
1CC86
102
}
102
{ACAD_REACTORS
330
56D4
102
}
330
56D4
100
AcDbProxyObject
 90
      499
 91
      511
 95
   983063
 70
     0
 93
      428
310
41D4DA185919590011B40902404333333333333E3BF0000000000000F9010740A41107004050150800405405064090840C02480A0B41
 94
        0
1001
ACAD
1000
AcDbSavedByObjectVersion
1070
     0
1000
AcRTDxfName
1000
VISUALSTYLE
1000
AcRTDxfName
1000
VISUALSTYLE
1000
AcRTDxfName
1000
VISUALSTYLE
1000
AcRTDxfName
1000
VISUALSTYLE
1000
AcRTDxfName
1000
VISUALSTYLE
1000
AcRTDxfName
1000
VISUALSTYLE
1000
AcRTDxfName
1000
VISUALSTYLE
  0
ACAD_PROXY_OBJECT
  5
C20C
102
{ACAD_XDICTIONARY
360
1CC84
102
}
102
{ACAD_REACTORS
330
56D4
102
}
330
56D4
100
AcDbProxyObject
 90
      499
 91
      511
 95
   983063
 70
     0
 93
      524
310
4494DA18591959081DDA5D1A08195919D95CC011A40902404333333333333E3BF0000000000000F901074090142907004050250800405405064090740C02480A0B49
 94
        0
1001
ACAD
1000
AcDbSavedByObjectVersion
1070
     0
1000
AcRTDxfName
1000
VISUALSTYLE
1000
AcRTDxfName
1000
VISUALSTYLE
1000
AcRTDxfName
1000
VISUALSTYLE
1000
AcRTDxfName
1000
VISUALSTYLE
1000
AcRTDxfName
1000
VISUALSTYLE
1000
AcRTDxfName
1000
VISUALSTYLE
1000
AcRTDxfName
1000
VISUALSTYLE
  0
ACAD_PROXY_OBJECT
  5
C209
102
{ACAD_XDICTIONARY
360
1CC7E
102
}
102
{ACAD_REACTORS
330
56D4
102
}
330
56D4
100
AcDbProxyObject
 90
      499
 91
      511
 95
   983063
 70
     0
 93
      540
310
43D4DA1859195CC81BD98811DC985E401174090240C333333333333E3BF0000000000000FB01079024090741D01000000000000111010841D405064090740C02480A034D
 94
        0
1001
ACAD
1000
AcDbSavedByObjectVersion
1070
     0
1000
AcRTDxfName
1000
VISUALSTYLE
1000
AcRTDxfName
1000
VISUALSTYLE
1000
AcRTDxfName
1000
VISUALSTYLE
1000
AcRTDxfName
1000
VISUALSTYLE
1000
AcRTDxfName
1000
VISUALSTYLE
1000
AcRTDxfName
1000
VISUALSTYLE
1000
AcRTDxfName
1000
VISUALSTYLE
  0
ACAD_PROXY_OBJECT
  5
C20A
102
{ACAD_XDICTIONARY
360
1CC80
102
}
102
{ACAD_REACTORS
330
56D4
102
}
330
56D4
100
AcDbProxyObject
 90
      499
 91
      511
 95
   983063
 70
     0
 93
      484
310
4214DAD95D18DA1E4011840502408333333333333E3BF0000000000000FB01079024090741D01000000000000111010B41D405064090741802480A0344
 94
        0
1001
ACAD
1000
AcDbSavedByObjectVersion
1070
     0
1000
AcRTDxfName
1000
VISUALSTYLE
1000
AcRTDxfName
1000
VISUALSTYLE
1000
AcRTDxfName
1000
VISUALSTYLE
1000
AcRTDxfName
1000
VISUALSTYLE
1000
AcRTDxfName
1000
VISUALSTYLE
1000
AcRTDxfName
1000
VISUALSTYLE
1000
AcRTDxfName
1000
VISUALSTYLE
  0
ACAD_PROXY_OBJECT
  5
56E1
102
{ACAD_XDICTIONARY
360
1CC6F
102
}
102
{ACAD_REACTORS
330
56D4
102
}
330
56D4
100
AcDbProxyObject
 90
      499
 91
      511
 95
   983063
 70
     0
 93
      420
310
42151A1A58DAD95B8010D409028333333333333E3BF0000000000000FB010790141107004050150C41D405064090741402480A0359
 94
        0
1001
ACAD
1000
AcRTDxfName
1000
VISUALSTYLE
1000
AcRTDxfName
1000
VISUALSTYLE
1000
AcRTDxfName
1000
VISUALSTYLE
1000
AcRTDxfName
1000
VISUALSTYLE
1000
AcDbSavedByObjectVersion
1070
     0
1000
AcRTDxfName
1000
VISUALSTYLE
1000
AcRTDxfName
1000
VISUALSTYLE
1000
AcRTDxfName
1000
VISUALSTYLE
1000
AcRTDxfName
1000
VISUALSTYLE
1000
AcRTDxfName
1000
VISUALSTYLE
1000
AcRTDxfName
1000
VISUALSTYLE
1000
AcRTDxfName
1000
VISUALSTYLE
  0
ACAD_PROXY_OBJECT
  5
C207
102
{ACAD_XDICTIONARY
360
1CC7A
102
}
102
{ACAD_REACTORS
330
56D4
102
}
330
56D4
100
AcDbProxyObject
 90
      499
 91
      511
 95
   983063
 70
     0
 93
      428
310
4295DA5C99599C985B59401059028333333333333E3BF0000000000000FB0107901411070040501600405405064090740C02480A0341
 94
        0
1001
ACAD
1000
AcDbSavedByObjectVersion
1070
     0
1000
AcRTDxfName
1000
VISUALSTYLE
1000
AcRTDxfName
1000
VISUALSTYLE
1000
AcRTDxfName
1000
VISUALSTYLE
1000
AcRTDxfName
1000
VISUALSTYLE
1000
AcRTDxfName
1000
VISUALSTYLE
1000
AcRTDxfName
1000
VISUALSTYLE
1000
AcRTDxfName
1000
VISUALSTYLE
  0
ACAD_PROXY_OBJECT
  5
C20B
102
{ACAD_XDICTIONARY
360
1CC82
102
}
102
{ACAD_REACTORS
330
56D4
102
}
330
56D4
100
AcDbProxyObject
 90
      499
 91
      511
 95
   983063
 70
     0
 93
      412
310
41960B54985E4011940902404000000000000E03F0000000000000FB010740501907004050150841D405064090740C02480A1B4D
 94
        0
1001
ACAD
1000
AcDbSavedByObjectVersion
1070
     0
1000
AcRTDxfName
1000
VISUALSTYLE
1000
AcRTDxfName
1000
VISUALSTYLE
1000
AcRTDxfName
1000
VISUALSTYLE
1000
AcRTDxfName
1000
VISUALSTYLE
1000
AcRTDxfName
1000
VISUALSTYLE
1000
AcRTDxfName
1000
VISUALSTYLE
1000
AcRTDxfName
1000
VISUALSTYLE
  0
DICTIONARYVAR
  5
CBEF
102
{ACAD_REACTORS
330
12D
102
}
330
12D
100
DictionaryVariables
280
     0
  1
1:1
  0
DICTIONARYVAR
  5
CBEE
102
{ACAD_REACTORS
330
12D
102
}
330
12D
100
DictionaryVariables
280
     0
  1
STANDARD
  0
DICTIONARYVAR
  5
5756
102
{ACAD_REACTORS
330
12D
102
}
330
12D
100
DictionaryVariables
280
     0
  1
STANDARD
  0
DICTIONARYVAR
  5
56CE
102
{ACAD_REACTORS
330
12D
102
}
330
12D
100
DictionaryVariables
280
     0
  1
1
  0
DICTIONARYVAR
  5
5757
102
{ACAD_REACTORS
330
12D
102
}
330
12D
100
DictionaryVariables
280
     0
  1
0
  0
DICTIONARYVAR
  5
5982
102
{ACAD_REACTORS
330
12D
102
}
330
12D
100
DictionaryVariables
280
     0
  1

  0
DICTIONARYVAR
  5
12E
102
{ACAD_REACTORS
330
12D
102
}
330
12D
100
DictionaryVariables
280
     0
  1
96
  0
DICTIONARYVAR
  5
1CC90
102
{ACAD_REACTORS
330
12D
102
}
330
12D
100
DictionaryVariables
280
     0
  1
0
  0
DICTIONARY
  5
1F5E0
330
5656
100
AcDbDictionary
280
     1
281
     1
  3
ACAD_XREC_ROUNDTRIP
360
1F5E1
  0
DICTIONARY
  5
1F5E2
330
5657
100
AcDbDictionary
280
     1
281
     1
  3
ACAD_XREC_ROUNDTRIP
360
1F5E3
  0
DICTIONARY
  5
1CC53
330
56D2
100
AcDbDictionary
280
     1
281
     1
  3
ACAD_XREC_ROUNDTRIP
360
1CC54
  0
DICTIONARY
  5
1CC51
330
56D1
100
AcDbDictionary
280
     1
281
     1
  3
ACAD_XREC_ROUNDTRIP
360
1CC52
  0
DICTIONARY
  5
1CC55
330
56D3
100
AcDbDictionary
280
     1
281
     1
  3
ACAD_XREC_ROUNDTRIP
360
1CC56
  0
DICTIONARY
  5
1CC48
330
C224
100
AcDbDictionary
280
     1
281
     1
  3
ACAD_XREC_ROUNDTRIP
360
1CC49
  0
DICTIONARY
  5
CB81
330
56E7
100
AcDbDictionary
280
     1
281
     1
  3
ACAD_ROUNDTRIP_2008_TABLESTYLE_CELLSTYLEMAP
360
1CC47
  3
ACAD_XREC_ROUNDTRIP
360
1CC77
  0
DICTIONARY
  5
1CC61
330
56DA
100
AcDbDictionary
280
     1
281
     1
  3
ACAD_XREC_ROUNDTRIP
360
1CC62
  0
DICTIONARY
  5
1CC65
330
56DC
100
AcDbDictionary
280
     1
281
     1
  3
ACAD_XREC_ROUNDTRIP
360
1CC66
  0
DICTIONARY
  5
1CC63
330
56DB
100
AcDbDictionary
280
     1
281
     1
  3
ACAD_XREC_ROUNDTRIP
360
1CC64
  0
DICTIONARY
  5
1CC5F
330
56D9
100
AcDbDictionary
280
     1
281
     1
  3
ACAD_XREC_ROUNDTRIP
360
1CC60
  0
DICTIONARY
  5
1CC6D
330
56E0
100
AcDbDictionary
280
     1
281
     1
  3
ACAD_XREC_ROUNDTRIP
360
1CC6E
  0
DICTIONARY
  5
1CC75
330
56E4
100
AcDbDictionary
280
     1
281
     1
  3
ACAD_XREC_ROUNDTRIP
360
1CC76
  0
DICTIONARY
  5
1CC67
330
56DD
100
AcDbDictionary
280
     1
281
     1
  3
ACAD_XREC_ROUNDTRIP
360
1CC68
  0
DICTIONARY
  5
1CC6B
330
56DF
100
AcDbDictionary
280
     1
281
     1
  3
ACAD_XREC_ROUNDTRIP
360
1CC6C
  0
DICTIONARY
  5
1CC8C
330
C210
100
AcDbDictionary
280
     1
281
     1
  3
ACAD_XREC_ROUNDTRIP
360
1CC8D
  0
DICTIONARY
  5
1CC73
330
56E3
100
AcDbDictionary
280
     1
281
     1
  3
ACAD_XREC_ROUNDTRIP
360
1CC74
  0
DICTIONARY
  5
1CC57
330
56D5
100
AcDbDictionary
280
     1
281
     1
  3
ACAD_XREC_ROUNDTRIP
360
1CC58
  0
DICTIONARY
  5
1CC59
330
56D6
100
AcDbDictionary
280
     1
281
     1
  3
ACAD_XREC_ROUNDTRIP
360
1CC5A
  0
DICTIONARY
  5
1CC5B
330
56D7
100
AcDbDictionary
280
     1
281
     1
  3
ACAD_XREC_ROUNDTRIP
360
1CC5C
  0
DICTIONARY
  5
1CC5D
330
56D8
100
AcDbDictionary
280
     1
281
     1
  3
ACAD_XREC_ROUNDTRIP
360
1CC5E
  0
DICTIONARY
  5
1CC7C
330
C208
100
AcDbDictionary
280
     1
281
     1
  3
ACAD_XREC_ROUNDTRIP
360
1CC7D
  0
DICTIONARY
  5
1CC88
330
C20E
100
AcDbDictionary
280
     1
281
     1
  3
ACAD_XREC_ROUNDTRIP
360
1CC89
  0
DICTIONARY
  5
1CC71
330
56E2
100
AcDbDictionary
280
     1
281
     1
  3
ACAD_XREC_ROUNDTRIP
360
1CC72
  0
DICTIONARY
  5
1CC8A
330
C20F
100
AcDbDictionary
280
     1
281
     1
  3
ACAD_XREC_ROUNDTRIP
360
1CC8B
  0
DICTIONARY
  5
1CC69
330
56DE
100
AcDbDictionary
280
     1
281
     1
  3
ACAD_XREC_ROUNDTRIP
360
1CC6A
  0
DICTIONARY
  5
1CC86
330
C20D
100
AcDbDictionary
280
     1
281
     1
  3
ACAD_XREC_ROUNDTRIP
360
1CC87
  0
DICTIONARY
  5
1CC84
330
C20C
100
AcDbDictionary
280
     1
281
     1
  3
ACAD_XREC_ROUNDTRIP
360
1CC85
  0
DICTIONARY
  5
1CC7E
330
C209
100
AcDbDictionary
280
     1
281
     1
  3
ACAD_XREC_ROUNDTRIP
360
1CC7F
  0
DICTIONARY
  5
1CC80
330
C20A
100
AcDbDictionary
280
     1
281
     1
  3
ACAD_XREC_ROUNDTRIP
360
1CC81
  0
DICTIONARY
  5
1CC6F
330
56E1
100
AcDbDictionary
280
     1
281
     1
  3
ACAD_XREC_ROUNDTRIP
360
1CC70
  0
DICTIONARY
  5
1CC7A
330
C207
100
AcDbDictionary
280
     1
281
     1
  3
ACAD_XREC_ROUNDTRIP
360
1CC7B
  0
DICTIONARY
  5
1CC82
330
C20B
100
AcDbDictionary
280
     1
281
     1
  3
ACAD_XREC_ROUNDTRIP
360
1CC83
  0
XRECORD
  5
1F5E1
102
{ACAD_REACTORS
330
1F5E0
102
}
330
1F5E0
100
AcDbXrecord
280
     1
102
SHADEPLOT
 70
     0
102
SHADEPLOTRESLEVEL
 70
     2
102
SHADEPLOTCUSTOMDPI
 70
   300
  0
XRECORD
  5
1F5E3
102
{ACAD_REACTORS
330
1F5E2
102
}
330
1F5E2
100
AcDbXrecord
280
     1
102
SHADEPLOT
 70
     0
102
SHADEPLOTRESLEVEL
 70
     2
102
SHADEPLOTCUSTOMDPI
 70
   300
  0
XRECORD
  5
1CC54
102
{ACAD_REACTORS
330
1CC53
102
}
330
1CC53
100
AcDbXrecord
280
     1
102
MATERIAL
148
0.0
149
0.0
149
0.0
 93
        0
 94
       63
282
     0
 72
     1
 77
     1
171
     1
175
     1
179
     1
273
     0
  0
XRECORD
  5
1CC52
102
{ACAD_REACTORS
330
1CC51
102
}
330
1CC51
100
AcDbXrecord
280
     1
102
MATERIAL
148
0.0
149
0.0
149
0.0
 93
        0
 94
       63
282
     0
 72
     1
 77
     1
171
     1
175
     1
179
     1
273
     0
  0
XRECORD
  5
1CC56
102
{ACAD_REACTORS
330
1CC55
102
}
330
1CC55
100
AcDbXrecord
280
     1
102
MATERIAL
148
0.0
149
0.0
149
0.0
 93
        0
 94
       63
282
     0
 72
     1
 77
     1
171
     1
175
     1
179
     1
273
     0
  0
XRECORD
  5
1CC49
102
{ACAD_REACTORS
330
1CC48
102
}
330
1CC48
100
AcDbXrecord
280
     1
102
ACAD_ROUNDTRIP_2012_MLEADER_STYLE
298
     1
  0
ACAD_PROXY_OBJECT
  5
1CC47
102
{ACAD_REACTORS
330
CB81
102
}
330
CB81
100
AcDbProxyObject
 90
      499
 91
      521
 95
   983063
 70
     0
 93
     5304
310
40D054060020000020000003200101A000080002A5058000000C10000000000000006101010000000000003E0FC000000000000F83F0000000000003E0FC000000000000F83F02B5E8DC0F42B1CFC0AD7A3703D0AC73F419019018000000C1003FBFFFFFE02B5E8DC0F42A9CFD029018000000C1003FBFFFFFE02B5E8DC0F4
310
2A9CFD049018000000C1003FBFFFFFE02B5E8DC0F42A9CFD089018000000C1003FBFFFFFE02B5E8DC0F42A9CFD109018000000C1003FBFFFFFE02B5E8DC0F42A9CFD209018000000C1003FBFFFFFE02B5E8DC0F42A9CFD01405075F5449544C450041501A8000000C800406800020000A94160000003040000000000000012
310
40404000000000000F83F0000000000003E0FC000000000000F83F0000000000003E0FC0AD7A3703D0AC73F02B5E8DC0F42B1CFD0640640600000030400FEFFFFFF80AD7A3703D0AA73F40A40600000030400FEFFFFFF80AD7A3703D0AA73F41240600000030400FEFFFFFF80AD7A3703D0AA73F42240600000030400FEFFF
310
FFF80AD7A3703D0AA73F44240600000030400FEFFFFFF80AD7A3703D0AA73F48240600000030400FEFFFFFF80AD7A3703D0AA73F409014217D2115051115480105406A0000003200101A000080002A5028000000C10000000000000004901010000000000003E0FC000000000000F83F0000000000003E0FC000000000000F
310
83F02B5E8DC0F42B1CFC0AD7A3703D0AC73F419019018000000C1003FBFFFFFE02B5E8DC0F42A9CFD029018000000C1003FBFFFFFE02B5E8DC0F42A9CFD049018000000C1003FBFFFFFE02B5E8DC0F42A9CFD089018000000C1003FBFFFFFE02B5E8DC0F42A9CFD109018000000C1003FBFFFFFE02B5E8DC0F42A9CFD20901
310
8000000C1003FBFFFFFE02B5E8DC0F42A9CFD03409065F444154410000
340
F
340
0
340
0
340
0
340
0
340
0
340
0
340
F
340
0
340
0
340
0
340
0
340
0
340
0
340
F
340
0
340
0
340
0
340
0
340
0
340
0
 94
        0
1001
ACAD
1000
AcRTDxfName
1000
CELLSTYLEMAP
1000
AcRTDxfName
1000
CELLSTYLEMAP
1000
AcRTDxfName
1000
CELLSTYLEMAP
1000
AcRTDxfName
1000
CELLSTYLEMAP
1000
AcRTDxfName
1000
CELLSTYLEMAP
1000
AcRTDxfName
1000
CELLSTYLEMAP
1000
AcRTDxfName
1000
CELLSTYLEMAP
  0
XRECORD
  5
1CC77
102
{ACAD_REACTORS
330
CB81
102
}
330
CB81
100
AcDbXrecord
280
     1
102
ACAD_ROUNDTRIP_PRE2007_TABLESTYLE
 90
      512
 91
        0
  1

 92
      512
 93
        0
  2

 94
      512
 95
        0
  3

  0
XRECORD
  5
1CC62
102
{ACAD_REACTORS
330
1CC61
102
}
330
1CC61
100
AcDbXrecord
280
     1
102
RTVSPropertyOp0
 70
     1
102
RTVSPropertyOp1
 70
     1
102
RTVSPropertyOp2
 70
     1
102
RTVSPropertyOp3
 70
     1
102
RTVSPropertyOp4
 70
     1
102
RTVSPropertyOp5
 70
     1
102
RTVSPropertyOp6
 70
     1
102
RTVSPropertyOp7
 70
     1
102
RTVSPropertyOp8
 70
     1
102
RTVSPropertyOp9
 70
     1
102
RTVSPropertyOp10
 70
     1
102
RTVSPropertyOp11
 70
     1
102
RTVSPropertyOp12
 70
     1
102
RTVSPropertyOp13
 70
     1
102
RTVSPropertyOp14
 70
     1
102
RTVSPropertyOp15
 70
     1
102
RTVSPropertyOp16
 70
     1
102
RTVSPropertyOp17
 70
     1
102
RTVSPropertyOp18
 70
     1
102
RTVSPropertyOp19
 70
     1
102
RTVSPropertyOp20
 70
     1
102
RTVSPropertyOp21
 70
     1
102
RTVSPropertyOp22
 70
     1
102
RTVSPropertyOp23
 70
     1
102
RTVSPropertyOp24
 70
     1
102
RTVSPropertyOp25
 70
     1
102
RTVSPropertyOp26
 70
     1
102
RTVSPropertyOp27
 70
     1
102
RTVSPropertyOp28
 70
     1
102
RTVSPropertyOp29
 70
     1
102
RTVSPropertyOp30
 70
     1
102
RTVSPropertyOp31
 70
     1
102
RTVSPropertyOp32
 70
     1
  0
XRECORD
  5
1CC66
102
{ACAD_REACTORS
330
1CC65
102
}
330
1CC65
100
AcDbXrecord
280
     1
102
RTVSPropertyOp0
 70
     1
102
RTVSPropertyOp1
 70
     1
102
RTVSPropertyOp2
 70
     1
102
RTVSPropertyOp3
 70
     1
102
RTVSPropertyOp4
 70
     1
102
RTVSPropertyOp5
 70
     1
102
RTVSPropertyOp6
 70
     1
102
RTVSPropertyOp7
 70
     1
102
RTVSPropertyOp8
 70
     1
102
RTVSPropertyOp9
 70
     1
102
RTVSPropertyOp10
 70
     1
102
RTVSPropertyOp11
 70
     1
102
RTVSPropertyOp12
 70
     1
102
RTVSPropertyOp13
 70
     1
102
RTVSPropertyOp14
 70
     1
102
RTVSPropertyOp15
 70
     1
102
RTVSPropertyOp16
 70
     1
102
RTVSPropertyOp17
 70
     1
102
RTVSPropertyOp18
 70
     1
102
RTVSPropertyOp19
 70
     1
102
RTVSPropertyOp20
 70
     1
102
RTVSPropertyOp21
 70
     1
102
RTVSPropertyOp22
 70
     1
102
RTVSPropertyOp23
 70
     1
102
RTVSPropertyOp24
 70
     1
102
RTVSPropertyOp25
 70
     1
102
RTVSPropertyOp26
 70
     1
102
RTVSPropertyOp27
 70
     1
102
RTVSPropertyOp28
 70
     1
102
RTVSPropertyOp29
 70
     1
102
RTVSPropertyOp30
 70
     1
102
RTVSPropertyOp31
 70
     1
102
RTVSPropertyOp32
 70
     1
  0
XRECORD
  5
1CC64
102
{ACAD_REACTORS
330
1CC63
102
}
330
1CC63
100
AcDbXrecord
280
     1
102
RTVSPropertyOp0
 70
     1
102
RTVSPropertyOp1
 70
     1
102
RTVSPropertyOp2
 70
     1
102
RTVSPropertyOp3
 70
     1
102
RTVSPropertyOp4
 70
     1
102
RTVSPropertyOp5
 70
     1
102
RTVSPropertyOp6
 70
     1
102
RTVSPropertyOp7
 70
     1
102
RTVSPropertyOp8
 70
     1
102
RTVSPropertyOp9
 70
     1
102
RTVSPropertyOp10
 70
     1
102
RTVSPropertyOp11
 70
     1
102
RTVSPropertyOp12
 70
     1
102
RTVSPropertyOp13
 70
     1
102
RTVSPropertyOp14
 70
     1
102
RTVSPropertyOp15
 70
     1
102
RTVSPropertyOp16
 70
     1
102
RTVSPropertyOp17
 70
     1
102
RTVSPropertyOp18
 70
     1
102
RTVSPropertyOp19
 70
     1
102
RTVSPropertyOp20
 70
     1
102
RTVSPropertyOp21
 70
     1
102
RTVSPropertyOp22
 70
     1
102
RTVSPropertyOp23
 70
     1
102
RTVSPropertyOp24
 70
     1
102
RTVSPropertyOp25
 70
     1
102
RTVSPropertyOp26
 70
     1
102
RTVSPropertyOp27
 70
     1
102
RTVSPropertyOp28
 70
     1
102
RTVSPropertyOp29
 70
     1
102
RTVSPropertyOp30
 70
     1
102
RTVSPropertyOp31
 70
     1
102
RTVSPropertyOp32
 70
     1
  0
XRECORD
  5
1CC60
102
{ACAD_REACTORS
330
1CC5F
102
}
330
1CC5F
100
AcDbXrecord
280
     1
102
RTVSPropertyOp0
 70
     1
102
RTVSPropertyOp1
 70
     1
102
RTVSPropertyOp2
 70
     1
102
RTVSPropertyOp3
 70
     1
102
RTVSPropertyOp4
 70
     1
102
RTVSPropertyOp5
 70
     1
102
RTVSPropertyOp6
 70
     1
102
RTVSPropertyOp7
 70
     1
102
RTVSPropertyOp8
 70
     1
102
RTVSPropertyOp9
 70
     1
102
RTVSPropertyOp10
 70
     1
102
RTVSPropertyOp11
 70
     1
102
RTVSPropertyOp12
 70
     1
102
RTVSPropertyOp13
 70
     1
102
RTVSPropertyOp14
 70
     1
102
RTVSPropertyOp15
 70
     1
102
RTVSPropertyOp16
 70
     1
102
RTVSPropertyOp17
 70
     1
102
RTVSPropertyOp18
 70
     1
102
RTVSPropertyOp19
 70
     1
102
RTVSPropertyOp20
 70
     1
102
RTVSPropertyOp21
 70
     1
102
RTVSPropertyOp22
 70
     1
102
RTVSPropertyOp23
 70
     1
102
RTVSPropertyOp24
 70
     1
102
RTVSPropertyOp25
 70
     1
102
RTVSPropertyOp26
 70
     1
102
RTVSPropertyOp27
 70
     1
102
RTVSPropertyOp28
 70
     1
102
RTVSPropertyOp29
 70
     1
102
RTVSPropertyOp30
 70
     1
102
RTVSPropertyOp31
 70
     1
102
RTVSPropertyOp32
 70
     1
  0
XRECORD
  5
1CC6E
102
{ACAD_REACTORS
330
1CC6D
102
}
330
1CC6D
100
AcDbXrecord
280
     1
102
RTVSPropertyOp0
 70
     1
102
RTVSPropertyOp1
 70
     1
102
RTVSPropertyOp2
 70
     1
102
RTVSPropertyOp3
 70
     1
102
RTVSPropertyOp4
 70
     1
102
RTVSPropertyOp5
 70
     1
102
RTVSPropertyOp6
 70
     1
102
RTVSPropertyOp7
 70
     1
102
RTVSPropertyOp8
 70
     1
102
RTVSPropertyOp9
 70
     1
102
RTVSPropertyOp10
 70
     1
102
RTVSPropertyOp11
 70
     1
102
RTVSPropertyOp12
 70
     1
102
RTVSPropertyOp13
 70
     1
102
RTVSPropertyOp14
 70
     1
102
RTVSPropertyOp15
 70
     1
102
RTVSPropertyOp16
 70
     1
102
RTVSPropertyOp17
 70
     1
102
RTVSPropertyOp18
 70
     1
102
RTVSPropertyOp19
 70
     1
102
RTVSPropertyOp20
 70
     1
102
RTVSPropertyOp21
 70
     1
102
RTVSPropertyOp22
 70
     1
102
RTVSPropertyOp23
 70
     1
102
RTVSPropertyOp24
 70
     1
102
RTVSPropertyOp25
 70
     1
102
RTVSPropertyOp26
 70
     1
102
RTVSPropertyOp27
 70
     1
102
RTVSPropertyOp28
 70
     1
102
RTVSPropertyOp29
 70
     1
102
RTVSPropertyOp30
 70
     1
102
RTVSPropertyOp31
 70
     1
102
RTVSPropertyOp32
 70
     1
  0
XRECORD
  5
1CC76
102
{ACAD_REACTORS
330
1CC75
102
}
330
1CC75
100
AcDbXrecord
280
     1
102
RTVSPropertyOp0
 70
     1
102
RTVSPropertyOp1
 70
     1
102
RTVSPropertyOp2
 70
     1
102
RTVSPropertyOp3
 70
     1
102
RTVSPropertyOp4
 70
     1
102
RTVSPropertyOp5
 70
     1
102
RTVSPropertyOp6
 70
     1
102
RTVSPropertyOp7
 70
     1
102
RTVSPropertyOp8
 70
     1
102
RTVSPropertyOp9
 70
     1
102
RTVSPropertyOp10
 70
     1
102
RTVSPropertyOp11
 70
     1
102
RTVSPropertyOp12
 70
     1
102
RTVSPropertyOp13
 70
     1
102
RTVSPropertyOp14
 70
     1
102
RTVSPropertyOp15
 70
     1
102
RTVSPropertyOp16
 70
     1
102
RTVSPropertyOp17
 70
     1
102
RTVSPropertyOp18
 70
     1
102
RTVSPropertyOp19
 70
     1
102
RTVSPropertyOp20
 70
     1
102
RTVSPropertyOp21
 70
     1
102
RTVSPropertyOp22
 70
     1
102
RTVSPropertyOp23
 70
     1
102
RTVSPropertyOp24
 70
     1
102
RTVSPropertyOp25
 70
     1
102
RTVSPropertyOp26
 70
     1
102
RTVSPropertyOp27
 70
     1
102
RTVSPropertyOp28
 70
     1
102
RTVSPropertyOp29
 70
     1
102
RTVSPropertyOp30
 70
     1
102
RTVSPropertyOp31
 70
     1
102
RTVSPropertyOp32
 70
     1
  0
XRECORD
  5
1CC68
102
{ACAD_REACTORS
330
1CC67
102
}
330
1CC67
100
AcDbXrecord
280
     1
102
RTVSPropertyOp0
 70
     1
102
RTVSPropertyOp1
 70
     1
102
RTVSPropertyOp2
 70
     1
102
RTVSPropertyOp3
 70
     1
102
RTVSPropertyOp4
 70
     1
102
RTVSPropertyOp5
 70
     1
102
RTVSPropertyOp6
 70
     1
102
RTVSPropertyOp7
 70
     1
102
RTVSPropertyOp8
 70
     1
102
RTVSPropertyOp9
 70
     1
102
RTVSPropertyOp10
 70
     1
102
RTVSPropertyOp11
 70
     1
102
RTVSPropertyOp12
 70
     1
102
RTVSPropertyOp13
 70
     1
102
RTVSPropertyOp14
 70
     1
102
RTVSPropertyOp15
 70
     1
102
RTVSPropertyOp16
 70
     1
102
RTVSPropertyOp17
 70
     1
102
RTVSPropertyOp18
 70
     1
102
RTVSPropertyOp19
 70
     1
102
RTVSPropertyOp20
 70
     1
102
RTVSPropertyOp21
 70
     1
102
RTVSPropertyOp22
 70
     1
102
RTVSPropertyOp23
 70
     1
102
RTVSPropertyOp24
 70
     1
102
RTVSPropertyOp25
 70
     1
102
RTVSPropertyOp26
 70
     1
102
RTVSPropertyOp27
 70
     1
102
RTVSPropertyOp28
 70
     1
102
RTVSPropertyOp29
 70
     1
102
RTVSPropertyOp30
 70
     1
102
RTVSPropertyOp31
 70
     1
102
RTVSPropertyOp32
 70
     1
  0
XRECORD
  5
1CC6C
102
{ACAD_REACTORS
330
1CC6B
102
}
330
1CC6B
100
AcDbXrecord
280
     1
102
RTVSPropertyOp0
 70
     1
102
RTVSPropertyOp1
 70
     1
102
RTVSPropertyOp2
 70
     1
102
RTVSPropertyOp3
 70
     1
102
RTVSPropertyOp4
 70
     1
102
RTVSPropertyOp5
 70
     1
102
RTVSPropertyOp6
 70
     1
102
RTVSPropertyOp7
 70
     1
102
RTVSPropertyOp8
 70
     1
102
RTVSPropertyOp9
 70
     1
102
RTVSPropertyOp10
 70
     1
102
RTVSPropertyOp11
 70
     1
102
RTVSPropertyOp12
 70
     1
102
RTVSPropertyOp13
 70
     1
102
RTVSPropertyOp14
 70
     1
102
RTVSPropertyOp15
 70
     1
102
RTVSPropertyOp16
 70
     1
102
RTVSPropertyOp17
 70
     1
102
RTVSPropertyOp18
 70
     1
102
RTVSPropertyOp19
 70
     1
102
RTVSPropertyOp20
 70
     1
102
RTVSPropertyOp21
 70
     1
102
RTVSPropertyOp22
 70
     1
102
RTVSPropertyOp23
 70
     1
102
RTVSPropertyOp24
 70
     1
102
RTVSPropertyOp25
 70
     1
102
RTVSPropertyOp26
 70
     1
102
RTVSPropertyOp27
 70
     1
102
RTVSPropertyOp28
 70
     1
102
RTVSPropertyOp29
 70
     1
102
RTVSPropertyOp30
 70
     1
102
RTVSPropertyOp31
 70
     1
102
RTVSPropertyOp32
 70
     1
  0
XRECORD
  5
1CC8D
102
{ACAD_REACTORS
330
1CC8C
102
}
330
1CC8C
100
AcDbXrecord
280
     1
102
RTVSPropertyOp0
 70
     0
102
RTVSPropertyOp1
 70
     0
102
RTVSPropertyOp2
 70
     0
102
RTVSPropertyOp3
 70
     0
102
RTVSPropertyOp4
 70
     0
102
RTVSPropertyOp5
 70
     0
102
RTVSPropertyOp6
 70
     0
102
RTVSPropertyOp7
 70
     0
102
RTVSPropertyOp8
 70
     0
102
RTVSPropertyOp9
 70
     0
102
RTVSPropertyOp10
 70
     0
102
RTVSPropertyOp11
 70
     0
102
RTVSPropertyOp12
 70
     0
102
RTVSPropertyOp13
 70
     0
102
RTVSPropertyOp14
 70
     2
102
RTVSPropertyOp15
 70
     0
102
RTVSPropertyOp16
 70
     0
102
RTVSPropertyOp17
 70
     0
102
RTVSPropertyOp18
 70
     0
102
RTVSPropertyOp19
 70
     0
102
RTVSPropertyOp20
 70
     0
102
RTVSPropertyOp21
 70
     0
102
RTVSPropertyOp22
 70
     0
102
RTVSPropertyOp23
 70
     0
102
RTVSPropertyOp24
 70
     0
102
RTVSPropertyOp25
 70
     0
102
RTVSPropertyOp26
 70
     0
102
RTVSPropertyOp27
 70
     0
102
RTVSPropertyOp28
 70
     0
102
RTVSPropertyOp29
 70
     0
102
RTVSPropertyOp30
 70
     0
102
RTVSPropertyOp31
 70
     0
102
RTVSPropertyOp32
 70
     0
  0
XRECORD
  5
1CC74
102
{ACAD_REACTORS
330
1CC73
102
}
330
1CC73
100
AcDbXrecord
280
     1
102
RTVSPropertyOp0
 70
     1
102
RTVSPropertyOp1
 70
     1
102
RTVSPropertyOp2
 70
     1
102
RTVSPropertyOp3
 70
     1
102
RTVSPropertyOp4
 70
     1
102
RTVSPropertyOp5
 70
     1
102
RTVSPropertyOp6
 70
     1
102
RTVSPropertyOp7
 70
     1
102
RTVSPropertyOp8
 70
     1
102
RTVSPropertyOp9
 70
     1
102
RTVSPropertyOp10
 70
     1
102
RTVSPropertyOp11
 70
     1
102
RTVSPropertyOp12
 70
     1
102
RTVSPropertyOp13
 70
     1
102
RTVSPropertyOp14
 70
     1
102
RTVSPropertyOp15
 70
     1
102
RTVSPropertyOp16
 70
     1
102
RTVSPropertyOp17
 70
     1
102
RTVSPropertyOp18
 70
     1
102
RTVSPropertyOp19
 70
     1
102
RTVSPropertyOp20
 70
     1
102
RTVSPropertyOp21
 70
     1
102
RTVSPropertyOp22
 70
     1
102
RTVSPropertyOp23
 70
     1
102
RTVSPropertyOp24
 70
     1
102
RTVSPropertyOp25
 70
     1
102
RTVSPropertyOp26
 70
     1
102
RTVSPropertyOp27
 70
     1
102
RTVSPropertyOp28
 70
     1
102
RTVSPropertyOp29
 70
     1
102
RTVSPropertyOp30
 70
     1
102
RTVSPropertyOp31
 70
     1
102
RTVSPropertyOp32
 70
     1
  0
XRECORD
  5
1CC58
102
{ACAD_REACTORS
330
1CC57
102
}
330
1CC57
100
AcDbXrecord
280
     1
102
RTVSPropertyOp0
 70
     1
102
RTVSPropertyOp1
 70
     1
102
RTVSPropertyOp2
 70
     1
102
RTVSPropertyOp3
 70
     1
102
RTVSPropertyOp4
 70
     1
102
RTVSPropertyOp5
 70
     1
102
RTVSPropertyOp6
 70
     1
102
RTVSPropertyOp7
 70
     1
102
RTVSPropertyOp8
 70
     1
102
RTVSPropertyOp9
 70
     1
102
RTVSPropertyOp10
 70
     1
102
RTVSPropertyOp11
 70
     1
102
RTVSPropertyOp12
 70
     1
102
RTVSPropertyOp13
 70
     1
102
RTVSPropertyOp14
 70
     1
102
RTVSPropertyOp15
 70
     1
102
RTVSPropertyOp16
 70
     1
102
RTVSPropertyOp17
 70
     1
102
RTVSPropertyOp18
 70
     1
102
RTVSPropertyOp19
 70
     1
102
RTVSPropertyOp20
 70
     1
102
RTVSPropertyOp21
 70
     1
102
RTVSPropertyOp22
 70
     1
102
RTVSPropertyOp23
 70
     1
102
RTVSPropertyOp24
 70
     1
102
RTVSPropertyOp25
 70
     1
102
RTVSPropertyOp26
 70
     1
102
RTVSPropertyOp27
 70
     1
102
RTVSPropertyOp28
 70
     1
102
RTVSPropertyOp29
 70
     1
102
RTVSPropertyOp30
 70
     1
102
RTVSPropertyOp31
 70
     1
102
RTVSPropertyOp32
 70
     1
  0
XRECORD
  5
1CC5A
102
{ACAD_REACTORS
330
1CC59
102
}
330
1CC59
100
AcDbXrecord
280
     1
102
RTVSPropertyOp0
 70
     1
102
RTVSPropertyOp1
 70
     1
102
RTVSPropertyOp2
 70
     1
102
RTVSPropertyOp3
 70
     1
102
RTVSPropertyOp4
 70
     1
102
RTVSPropertyOp5
 70
     1
102
RTVSPropertyOp6
 70
     1
102
RTVSPropertyOp7
 70
     1
102
RTVSPropertyOp8
 70
     1
102
RTVSPropertyOp9
 70
     1
102
RTVSPropertyOp10
 70
     1
102
RTVSPropertyOp11
 70
     1
102
RTVSPropertyOp12
 70
     1
102
RTVSPropertyOp13
 70
     1
102
RTVSPropertyOp14
 70
     1
102
RTVSPropertyOp15
 70
     1
102
RTVSPropertyOp16
 70
     1
102
RTVSPropertyOp17
 70
     1
102
RTVSPropertyOp18
 70
     1
102
RTVSPropertyOp19
 70
     1
102
RTVSPropertyOp20
 70
     1
102
RTVSPropertyOp21
 70
     1
102
RTVSPropertyOp22
 70
     1
102
RTVSPropertyOp23
 70
     1
102
RTVSPropertyOp24
 70
     1
102
RTVSPropertyOp25
 70
     1
102
RTVSPropertyOp26
 70
     1
102
RTVSPropertyOp27
 70
     1
102
RTVSPropertyOp28
 70
     1
102
RTVSPropertyOp29
 70
     1
102
RTVSPropertyOp30
 70
     1
102
RTVSPropertyOp31
 70
     1
102
RTVSPropertyOp32
 70
     1
  0
XRECORD
  5
1CC5C
102
{ACAD_REACTORS
330
1CC5B
102
}
330
1CC5B
100
AcDbXrecord
280
     1
102
RTVSPropertyOp0
 70
     1
102
RTVSPropertyOp1
 70
     1
102
RTVSPropertyOp2
 70
     1
102
RTVSPropertyOp3
 70
     1
102
RTVSPropertyOp4
 70
     1
102
RTVSPropertyOp5
 70
     1
102
RTVSPropertyOp6
 70
     1
102
RTVSPropertyOp7
 70
     1
102
RTVSPropertyOp8
 70
     1
102
RTVSPropertyOp9
 70
     1
102
RTVSPropertyOp10
 70
     1
102
RTVSPropertyOp11
 70
     1
102
RTVSPropertyOp12
 70
     1
102
RTVSPropertyOp13
 70
     1
102
RTVSPropertyOp14
 70
     1
102
RTVSPropertyOp15
 70
     1
102
RTVSPropertyOp16
 70
     1
102
RTVSPropertyOp17
 70
     1
102
RTVSPropertyOp18
 70
     1
102
RTVSPropertyOp19
 70
     1
102
RTVSPropertyOp20
 70
     1
102
RTVSPropertyOp21
 70
     1
102
RTVSPropertyOp22
 70
     1
102
RTVSPropertyOp23
 70
     1
102
RTVSPropertyOp24
 70
     1
102
RTVSPropertyOp25
 70
     1
102
RTVSPropertyOp26
 70
     1
102
RTVSPropertyOp27
 70
     1
102
RTVSPropertyOp28
 70
     1
102
RTVSPropertyOp29
 70
     1
102
RTVSPropertyOp30
 70
     1
102
RTVSPropertyOp31
 70
     1
102
RTVSPropertyOp32
 70
     1
  0
XRECORD
  5
1CC5E
102
{ACAD_REACTORS
330
1CC5D
102
}
330
1CC5D
100
AcDbXrecord
280
     1
102
RTVSPropertyOp0
 70
     1
102
RTVSPropertyOp1
 70
     1
102
RTVSPropertyOp2
 70
     1
102
RTVSPropertyOp3
 70
     1
102
RTVSPropertyOp4
 70
     1
102
RTVSPropertyOp5
 70
     1
102
RTVSPropertyOp6
 70
     1
102
RTVSPropertyOp7
 70
     1
102
RTVSPropertyOp8
 70
     1
102
RTVSPropertyOp9
 70
     1
102
RTVSPropertyOp10
 70
     1
102
RTVSPropertyOp11
 70
     1
102
RTVSPropertyOp12
 70
     1
102
RTVSPropertyOp13
 70
     1
102
RTVSPropertyOp14
 70
     1
102
RTVSPropertyOp15
 70
     1
102
RTVSPropertyOp16
 70
     1
102
RTVSPropertyOp17
 70
     1
102
RTVSPropertyOp18
 70
     1
102
RTVSPropertyOp19
 70
     1
102
RTVSPropertyOp20
 70
     1
102
RTVSPropertyOp21
 70
     1
102
RTVSPropertyOp22
 70
     1
102
RTVSPropertyOp23
 70
     1
102
RTVSPropertyOp24
 70
     1
102
RTVSPropertyOp25
 70
     1
102
RTVSPropertyOp26
 70
     1
102
RTVSPropertyOp27
 70
     1
102
RTVSPropertyOp28
 70
     1
102
RTVSPropertyOp29
 70
     1
102
RTVSPropertyOp30
 70
     1
102
RTVSPropertyOp31
 70
     1
102
RTVSPropertyOp32
 70
     1
  0
XRECORD
  5
1CC7D
102
{ACAD_REACTORS
330
1CC7C
102
}
330
1CC7C
100
AcDbXrecord
280
     1
102
RTVSPropertyOp0
 70
     1
102
RTVSPropertyOp1
 70
     1
102
RTVSPropertyOp2
 70
     1
102
RTVSPropertyOp3
 70
     1
102
RTVSPropertyOp4
 70
     1
102
RTVSPropertyOp5
 70
     1
102
RTVSPropertyOp6
 70
     1
102
RTVSPropertyOp7
 70
     1
102
RTVSPropertyOp8
 70
     1
102
RTVSPropertyOp9
 70
     1
102
RTVSPropertyOp10
 70
     1
102
RTVSPropertyOp11
 70
     1
102
RTVSPropertyOp12
 70
     1
102
RTVSPropertyOp13
 70
     1
102
RTVSPropertyOp14
 70
     1
102
RTVSPropertyOp15
 70
     1
102
RTVSPropertyOp16
 70
     1
102
RTVSPropertyOp17
 70
     1
102
RTVSPropertyOp18
 70
     1
102
RTVSPropertyOp19
 70
     1
102
RTVSPropertyOp20
 70
     1
102
RTVSPropertyOp21
 70
     1
102
RTVSPropertyOp22
 70
     1
102
RTVSPropertyOp23
 70
     1
102
RTVSPropertyOp24
 70
     1
102
RTVSPropertyOp25
 70
     1
102
RTVSPropertyOp26
 70
     1
102
RTVSPropertyOp27
 70
     1
102
RTVSPropertyOp28
 70
     1
102
RTVSPropertyOp29
 70
     1
102
RTVSPropertyOp30
 70
     1
102
RTVSPropertyOp31
 70
     1
102
RTVSPropertyOp32
 70
     1
  0
XRECORD
  5
1CC89
102
{ACAD_REACTORS
330
1CC88
102
}
330
1CC88
100
AcDbXrecord
280
     1
102
RTVSPropertyOp0
 70
     0
102
RTVSPropertyOp1
 70
     0
102
RTVSPropertyOp2
 70
     0
102
RTVSPropertyOp3
 70
     0
102
RTVSPropertyOp4
 70
     0
102
RTVSPropertyOp5
 70
     0
102
RTVSPropertyOp6
 70
     0
102
RTVSPropertyOp7
 70
     0
102
RTVSPropertyOp8
 70
     0
102
RTVSPropertyOp9
 70
     0
102
RTVSPropertyOp10
 70
     0
102
RTVSPropertyOp11
 70
     0
102
RTVSPropertyOp12
 70
     0
102
RTVSPropertyOp13
 70
     0
102
RTVSPropertyOp14
 70
     2
102
RTVSPropertyOp15
 70
     0
102
RTVSPropertyOp16
 70
     0
102
RTVSPropertyOp17
 70
     0
102
RTVSPropertyOp18
 70
     0
102
RTVSPropertyOp19
 70
     0
102
RTVSPropertyOp20
 70
     0
102
RTVSPropertyOp21
 70
     0
102
RTVSPropertyOp22
 70
     0
102
RTVSPropertyOp23
 70
     0
102
RTVSPropertyOp24
 70
     0
102
RTVSPropertyOp25
 70
     0
102
RTVSPropertyOp26
 70
     0
102
RTVSPropertyOp27
 70
     0
102
RTVSPropertyOp28
 70
     0
102
RTVSPropertyOp29
 70
     0
102
RTVSPropertyOp30
 70
     0
102
RTVSPropertyOp31
 70
     0
102
RTVSPropertyOp32
 70
     0
  0
XRECORD
  5
1CC72
102
{ACAD_REACTORS
330
1CC71
102
}
330
1CC71
100
AcDbXrecord
280
     1
102
RTVSPropertyOp0
 70
     1
102
RTVSPropertyOp1
 70
     1
102
RTVSPropertyOp2
 70
     1
102
RTVSPropertyOp3
 70
     1
102
RTVSPropertyOp4
 70
     1
102
RTVSPropertyOp5
 70
     1
102
RTVSPropertyOp6
 70
     1
102
RTVSPropertyOp7
 70
     1
102
RTVSPropertyOp8
 70
     1
102
RTVSPropertyOp9
 70
     1
102
RTVSPropertyOp10
 70
     1
102
RTVSPropertyOp11
 70
     1
102
RTVSPropertyOp12
 70
     1
102
RTVSPropertyOp13
 70
     1
102
RTVSPropertyOp14
 70
     1
102
RTVSPropertyOp15
 70
     1
102
RTVSPropertyOp16
 70
     1
102
RTVSPropertyOp17
 70
     1
102
RTVSPropertyOp18
 70
     1
102
RTVSPropertyOp19
 70
     1
102
RTVSPropertyOp20
 70
     1
102
RTVSPropertyOp21
 70
     1
102
RTVSPropertyOp22
 70
     1
102
RTVSPropertyOp23
 70
     1
102
RTVSPropertyOp24
 70
     1
102
RTVSPropertyOp25
 70
     1
102
RTVSPropertyOp26
 70
     1
102
RTVSPropertyOp27
 70
     1
102
RTVSPropertyOp28
 70
     1
102
RTVSPropertyOp29
 70
     1
102
RTVSPropertyOp30
 70
     1
102
RTVSPropertyOp31
 70
     1
102
RTVSPropertyOp32
 70
     1
  0
XRECORD
  5
1CC8B
102
{ACAD_REACTORS
330
1CC8A
102
}
330
1CC8A
100
AcDbXrecord
280
     1
102
RTVSPropertyOp0
 70
     0
102
RTVSPropertyOp1
 70
     0
102
RTVSPropertyOp2
 70
     0
102
RTVSPropertyOp3
 70
     0
102
RTVSPropertyOp4
 70
     0
102
RTVSPropertyOp5
 70
     0
102
RTVSPropertyOp6
 70
     0
102
RTVSPropertyOp7
 70
     0
102
RTVSPropertyOp8
 70
     0
102
RTVSPropertyOp9
 70
     0
102
RTVSPropertyOp10
 70
     0
102
RTVSPropertyOp11
 70
     0
102
RTVSPropertyOp12
 70
     0
102
RTVSPropertyOp13
 70
     0
102
RTVSPropertyOp14
 70
     2
102
RTVSPropertyOp15
 70
     0
102
RTVSPropertyOp16
 70
     0
102
RTVSPropertyOp17
 70
     0
102
RTVSPropertyOp18
 70
     0
102
RTVSPropertyOp19
 70
     0
102
RTVSPropertyOp20
 70
     0
102
RTVSPropertyOp21
 70
     0
102
RTVSPropertyOp22
 70
     0
102
RTVSPropertyOp23
 70
     0
102
RTVSPropertyOp24
 70
     0
102
RTVSPropertyOp25
 70
     0
102
RTVSPropertyOp26
 70
     0
102
RTVSPropertyOp27
 70
     0
102
RTVSPropertyOp28
 70
     0
102
RTVSPropertyOp29
 70
     0
102
RTVSPropertyOp30
 70
     0
102
RTVSPropertyOp31
 70
     0
102
RTVSPropertyOp32
 70
     0
  0
XRECORD
  5
1CC6A
102
{ACAD_REACTORS
330
1CC69
102
}
330
1CC69
100
AcDbXrecord
280
     1
102
RTVSPropertyOp0
 70
     1
102
RTVSPropertyOp1
 70
     1
102
RTVSPropertyOp2
 70
     1
102
RTVSPropertyOp3
 70
     1
102
RTVSPropertyOp4
 70
     1
102
RTVSPropertyOp5
 70
     1
102
RTVSPropertyOp6
 70
     1
102
RTVSPropertyOp7
 70
     1
102
RTVSPropertyOp8
 70
     1
102
RTVSPropertyOp9
 70
     1
102
RTVSPropertyOp10
 70
     1
102
RTVSPropertyOp11
 70
     1
102
RTVSPropertyOp12
 70
     1
102
RTVSPropertyOp13
 70
     1
102
RTVSPropertyOp14
 70
     1
102
RTVSPropertyOp15
 70
     1
102
RTVSPropertyOp16
 70
     1
102
RTVSPropertyOp17
 70
     1
102
RTVSPropertyOp18
 70
     1
102
RTVSPropertyOp19
 70
     1
102
RTVSPropertyOp20
 70
     1
102
RTVSPropertyOp21
 70
     1
102
RTVSPropertyOp22
 70
     1
102
RTVSPropertyOp23
 70
     1
102
RTVSPropertyOp24
 70
     1
102
RTVSPropertyOp25
 70
     1
102
RTVSPropertyOp26
 70
     1
102
RTVSPropertyOp27
 70
     1
102
RTVSPropertyOp28
 70
     1
102
RTVSPropertyOp29
 70
     1
102
RTVSPropertyOp30
 70
     1
102
RTVSPropertyOp31
 70
     1
102
RTVSPropertyOp32
 70
     1
  0
XRECORD
  5
1CC87
102
{ACAD_REACTORS
330
1CC86
102
}
330
1CC86
100
AcDbXrecord
280
     1
102
RTVSPropertyOp0
 70
     1
102
RTVSPropertyOp1
 70
     1
102
RTVSPropertyOp2
 70
     1
102
RTVSPropertyOp3
 70
     1
102
RTVSPropertyOp4
 70
     1
102
RTVSPropertyOp5
 70
     1
102
RTVSPropertyOp6
 70
     1
102
RTVSPropertyOp7
 70
     1
102
RTVSPropertyOp8
 70
     1
102
RTVSPropertyOp9
 70
     1
102
RTVSPropertyOp10
 70
     1
102
RTVSPropertyOp11
 70
     1
102
RTVSPropertyOp12
 70
     1
102
RTVSPropertyOp13
 70
     1
102
RTVSPropertyOp14
 70
     1
102
RTVSPropertyOp15
 70
     1
102
RTVSPropertyOp16
 70
     1
102
RTVSPropertyOp17
 70
     1
102
RTVSPropertyOp18
 70
     1
102
RTVSPropertyOp19
 70
     1
102
RTVSPropertyOp20
 70
     1
102
RTVSPropertyOp21
 70
     1
102
RTVSPropertyOp22
 70
     1
102
RTVSPropertyOp23
 70
     1
102
RTVSPropertyOp24
 70
     1
102
RTVSPropertyOp25
 70
     1
102
RTVSPropertyOp26
 70
     1
102
RTVSPropertyOp27
 70
     1
102
RTVSPropertyOp28
 70
     1
102
RTVSPropertyOp29
 70
     1
102
RTVSPropertyOp30
 70
     1
102
RTVSPropertyOp31
 70
     1
102
RTVSPropertyOp32
 70
     1
  0
XRECORD
  5
1CC85
102
{ACAD_REACTORS
330
1CC84
102
}
330
1CC84
100
AcDbXrecord
280
     1
102
RTVSPropertyOp0
 70
     1
102
RTVSPropertyOp1
 70
     1
102
RTVSPropertyOp2
 70
     1
102
RTVSPropertyOp3
 70
     1
102
RTVSPropertyOp4
 70
     1
102
RTVSPropertyOp5
 70
     1
102
RTVSPropertyOp6
 70
     1
102
RTVSPropertyOp7
 70
     1
102
RTVSPropertyOp8
 70
     1
102
RTVSPropertyOp9
 70
     1
102
RTVSPropertyOp10
 70
     1
102
RTVSPropertyOp11
 70
     1
102
RTVSPropertyOp12
 70
     1
102
RTVSPropertyOp13
 70
     1
102
RTVSPropertyOp14
 70
     1
102
RTVSPropertyOp15
 70
     1
102
RTVSPropertyOp16
 70
     1
102
RTVSPropertyOp17
 70
     1
102
RTVSPropertyOp18
 70
     1
102
RTVSPropertyOp19
 70
     1
102
RTVSPropertyOp20
 70
     1
102
RTVSPropertyOp21
 70
     1
102
RTVSPropertyOp22
 70
     1
102
RTVSPropertyOp23
 70
     1
102
RTVSPropertyOp24
 70
     1
102
RTVSPropertyOp25
 70
     1
102
RTVSPropertyOp26
 70
     1
102
RTVSPropertyOp27
 70
     1
102
RTVSPropertyOp28
 70
     1
102
RTVSPropertyOp29
 70
     1
102
RTVSPropertyOp30
 70
     1
102
RTVSPropertyOp31
 70
     1
102
RTVSPropertyOp32
 70
     1
  0
XRECORD
  5
1CC7F
102
{ACAD_REACTORS
330
1CC7E
102
}
330
1CC7E
100
AcDbXrecord
280
     1
102
RTVSPropertyOp0
 70
     1
102
RTVSPropertyOp1
 70
     1
102
RTVSPropertyOp2
 70
     1
102
RTVSPropertyOp3
 70
     1
102
RTVSPropertyOp4
 70
     1
102
RTVSPropertyOp5
 70
     1
102
RTVSPropertyOp6
 70
     1
102
RTVSPropertyOp7
 70
     1
102
RTVSPropertyOp8
 70
     1
102
RTVSPropertyOp9
 70
     1
102
RTVSPropertyOp10
 70
     1
102
RTVSPropertyOp11
 70
     1
102
RTVSPropertyOp12
 70
     1
102
RTVSPropertyOp13
 70
     1
102
RTVSPropertyOp14
 70
     1
102
RTVSPropertyOp15
 70
     1
102
RTVSPropertyOp16
 70
     1
102
RTVSPropertyOp17
 70
     1
102
RTVSPropertyOp18
 70
     1
102
RTVSPropertyOp19
 70
     1
102
RTVSPropertyOp20
 70
     1
102
RTVSPropertyOp21
 70
     1
102
RTVSPropertyOp22
 70
     1
102
RTVSPropertyOp23
 70
     1
102
RTVSPropertyOp24
 70
     1
102
RTVSPropertyOp25
 70
     1
102
RTVSPropertyOp26
 70
     1
102
RTVSPropertyOp27
 70
     1
102
RTVSPropertyOp28
 70
     1
102
RTVSPropertyOp29
 70
     1
102
RTVSPropertyOp30
 70
     1
102
RTVSPropertyOp31
 70
     1
102
RTVSPropertyOp32
 70
     1
  0
XRECORD
  5
1CC81
102
{ACAD_REACTORS
330
1CC80
102
}
330
1CC80
100
AcDbXrecord
280
     1
102
RTVSPropertyOp0
 70
     1
102
RTVSPropertyOp1
 70
     1
102
RTVSPropertyOp2
 70
     1
102
RTVSPropertyOp3
 70
     1
102
RTVSPropertyOp4
 70
     1
102
RTVSPropertyOp5
 70
     1
102
RTVSPropertyOp6
 70
     1
102
RTVSPropertyOp7
 70
     1
102
RTVSPropertyOp8
 70
     1
102
RTVSPropertyOp9
 70
     1
102
RTVSPropertyOp10
 70
     1
102
RTVSPropertyOp11
 70
     1
102
RTVSPropertyOp12
 70
     1
102
RTVSPropertyOp13
 70
     1
102
RTVSPropertyOp14
 70
     1
102
RTVSPropertyOp15
 70
     1
102
RTVSPropertyOp16
 70
     1
102
RTVSPropertyOp17
 70
     1
102
RTVSPropertyOp18
 70
     1
102
RTVSPropertyOp19
 70
     1
102
RTVSPropertyOp20
 70
     1
102
RTVSPropertyOp21
 70
     1
102
RTVSPropertyOp22
 70
     1
102
RTVSPropertyOp23
 70
     1
102
RTVSPropertyOp24
 70
     1
102
RTVSPropertyOp25
 70
     1
102
RTVSPropertyOp26
 70
     1
102
RTVSPropertyOp27
 70
     1
102
RTVSPropertyOp28
 70
     1
102
RTVSPropertyOp29
 70
     1
102
RTVSPropertyOp30
 70
     1
102
RTVSPropertyOp31
 70
     1
102
RTVSPropertyOp32
 70
     1
  0
XRECORD
  5
1CC70
102
{ACAD_REACTORS
330
1CC6F
102
}
330
1CC6F
100
AcDbXrecord
280
     1
102
RTVSPropertyOp0
 70
     1
102
RTVSPropertyOp1
 70
     1
102
RTVSPropertyOp2
 70
     1
102
RTVSPropertyOp3
 70
     1
102
RTVSPropertyOp4
 70
     1
102
RTVSPropertyOp5
 70
     1
102
RTVSPropertyOp6
 70
     1
102
RTVSPropertyOp7
 70
     1
102
RTVSPropertyOp8
 70
     1
102
RTVSPropertyOp9
 70
     1
102
RTVSPropertyOp10
 70
     1
102
RTVSPropertyOp11
 70
     1
102
RTVSPropertyOp12
 70
     1
102
RTVSPropertyOp13
 70
     1
102
RTVSPropertyOp14
 70
     1
102
RTVSPropertyOp15
 70
     1
102
RTVSPropertyOp16
 70
     1
102
RTVSPropertyOp17
 70
     1
102
RTVSPropertyOp18
 70
     1
102
RTVSPropertyOp19
 70
     1
102
RTVSPropertyOp20
 70
     1
102
RTVSPropertyOp21
 70
     1
102
RTVSPropertyOp22
 70
     1
102
RTVSPropertyOp23
 70
     1
102
RTVSPropertyOp24
 70
     1
102
RTVSPropertyOp25
 70
     1
102
RTVSPropertyOp26
 70
     1
102
RTVSPropertyOp27
 70
     1
102
RTVSPropertyOp28
 70
     1
102
RTVSPropertyOp29
 70
     1
102
RTVSPropertyOp30
 70
     1
102
RTVSPropertyOp31
 70
     1
102
RTVSPropertyOp32
 70
     1
  0
XRECORD
  5
1CC7B
102
{ACAD_REACTORS
330
1CC7A
102
}
330
1CC7A
100
AcDbXrecord
280
     1
102
RTVSPropertyOp0
 70
     1
102
RTVSPropertyOp1
 70
     1
102
RTVSPropertyOp2
 70
     1
102
RTVSPropertyOp3
 70
     1
102
RTVSPropertyOp4
 70
     1
102
RTVSPropertyOp5
 70
     1
102
RTVSPropertyOp6
 70
     1
102
RTVSPropertyOp7
 70
     1
102
RTVSPropertyOp8
 70
     1
102
RTVSPropertyOp9
 70
     1
102
RTVSPropertyOp10
 70
     1
102
RTVSPropertyOp11
 70
     1
102
RTVSPropertyOp12
 70
     1
102
RTVSPropertyOp13
 70
     1
102
RTVSPropertyOp14
 70
     1
102
RTVSPropertyOp15
 70
     1
102
RTVSPropertyOp16
 70
     1
102
RTVSPropertyOp17
 70
     1
102
RTVSPropertyOp18
 70
     1
102
RTVSPropertyOp19
 70
     1
102
RTVSPropertyOp20
 70
     1
102
RTVSPropertyOp21
 70
     1
102
RTVSPropertyOp22
 70
     1
102
RTVSPropertyOp23
 70
     1
102
RTVSPropertyOp24
 70
     1
102
RTVSPropertyOp25
 70
     1
102
RTVSPropertyOp26
 70
     1
102
RTVSPropertyOp27
 70
     1
102
RTVSPropertyOp28
 70
     1
102
RTVSPropertyOp29
 70
     1
102
RTVSPropertyOp30
 70
     1
102
RTVSPropertyOp31
 70
     1
102
RTVSPropertyOp32
 70
     1
  0
XRECORD
  5
1CC83
102
{ACAD_REACTORS
330
1CC82
102
}
330
1CC82
100
AcDbXrecord
280
     1
102
RTVSPropertyOp0
 70
     1
102
RTVSPropertyOp1
 70
     1
102
RTVSPropertyOp2
 70
     1
102
RTVSPropertyOp3
 70
     1
102
RTVSPropertyOp4
 70
     1
102
RTVSPropertyOp5
 70
     1
102
RTVSPropertyOp6
 70
     1
102
RTVSPropertyOp7
 70
     1
102
RTVSPropertyOp8
 70
     1
102
RTVSPropertyOp9
 70
     1
102
RTVSPropertyOp10
 70
     1
102
RTVSPropertyOp11
 70
     1
102
RTVSPropertyOp12
 70
     1
102
RTVSPropertyOp13
 70
     1
102
RTVSPropertyOp14
 70
     1
102
RTVSPropertyOp15
 70
     1
102
RTVSPropertyOp16
 70
     1
102
RTVSPropertyOp17
 70
     1
102
RTVSPropertyOp18
 70
     1
102
RTVSPropertyOp19
 70
     1
102
RTVSPropertyOp20
 70
     1
102
RTVSPropertyOp21
 70
     1
102
RTVSPropertyOp22
 70
     1
102
RTVSPropertyOp23
 70
     1
102
RTVSPropertyOp24
 70
     1
102
RTVSPropertyOp25
 70
     1
102
RTVSPropertyOp26
 70
     1
102
RTVSPropertyOp27
 70
     1
102
RTVSPropertyOp28
 70
     1
102
RTVSPropertyOp29
 70
     1
102
RTVSPropertyOp30
 70
     1
102
RTVSPropertyOp31
 70
     1
102
RTVSPropertyOp32
 70
     1
  0
ENDSEC
  0
EOF
