  0
SECTION
  2
HEADER
  9
$ACADVER
  1
AC1032
  9
$ACADMAINTVER
 90
      233
  9
$DWGCODEPAGE
  3
ANSI_932
  9
$LASTSAVEDBY
  1
taketo.kashima
  9
$REQUIREDVERSIONS
160
                 0
  9
$INSBASE
 10
268.4340021441085
 20
176.78614296069
 30
0.0
  9
$EXTMIN
 10
0.0000003635150279
 20
-323.463403415835
 30
0.0
  9
$EXTMAX
 10
1817.206368963655
 20
302.536596584165
 30
0.0
  9
$LIMMIN
 10
0.0
 20
0.0
  9
$LIMMAX
 10
554.0
 20
395.0
  9
$ORTHOMODE
 70
     0
  9
$REGENMODE
 70
     1
  9
$FILLMODE
 70
     1
  9
$QTEXTMODE
 70
     0
  9
$MIRRTEXT
 70
     1
  9
$LTSCALE
 40
2.0
  9
$ATTMODE
 70
     1
  9
$TEXTSIZE
 40
2.299999999999999
  9
$TRACEWID
 40
0.2
  9
$TEXTSTYLE
  7
KANJI
  9
$CLAYER
  8
C6
  9
$CELTYPE
  6
BYLAYER
  9
$CECOLOR
 62
   256
  9
$CELTSCALE
 40
2.0
  9
$DISPSILH
 70
     0
  9
$DIMSCALE
 40
1.0
  9
$DIMASZ
 40
1.0
  9
$DIMEXO
 40
1.0
  9
$DIMDLI
 40
6.0
  9
$DIMRND
 40
0.0
  9
$DIMDLE
 40
0.0
  9
$DIMEXE
 40
1.0
  9
$DIMTP
 40
0.0
  9
$DIMTM
 40
0.0
  9
$DIMTXT
 40
2.5
  9
$DIMCEN
 40
0.0
  9
$DIMTSZ
 40
0.0
  9
$DIMTOL
 70
     0
  9
$DIMLIM
 70
     0
  9
$DIMTIH
 70
     0
  9
$DIMTOH
 70
     0
  9
$DIMSE1
 70
     0
  9
$DIMSE2
 70
     0
  9
$DIMTAD
 70
     1
  9
$DIMZIN
 70
     8
  9
$DIMBLK
  1

  9
$DIMASO
 70
     1
  9
$DIMSHO
 70
     1
  9
$DIMPOST
  1

  9
$DIMAPOST
  1

  9
$DIMALT
 70
     0
  9
$DIMALTD
 70
     2
  9
$DIMALTF
 40
25.4
  9
$DIMLFAC
 40
1.0
  9
$DIMTOFL
 70
     1
  9
$DIMTVP
 40
0.0
  9
$DIMTIX
 70
     0
  9
$DIMSOXD
 70
     0
  9
$DIMSAH
 70
     1
  9
$DIMBLK1
  1
Y2
  9
$DIMBLK2
  1
Y2
  9
$DIMSTYLE
  2
STANDARD
  9
$DIMCLRD
 70
     0
  9
$DIMCLRE
 70
     0
  9
$DIMCLRT
 70
     0
  9
$DIMTFAC
 40
1.0
  9
$DIMGAP
 40
0.5
  9
$DIMJUST
 70
     0
  9
$DIMSD1
 70
     0
  9
$DIMSD2
 70
     0
  9
$DIMTOLJ
 70
     1
  9
$DIMTZIN
 70
     8
  9
$DIMALTZ
 70
     8
  9
$DIMALTTZ
 70
     8
  9
$DIMUPT
 70
     0
  9
$DIMDEC
 70
     4
  9
$DIMTDEC
 70
     4
  9
$DIMALTU
 70
     2
  9
$DIMALTTD
 70
     2
  9
$DIMTXSTY
  7
KANJI
  9
$DIMAUNIT
 70
     0
  9
$DIMADEC
 70
     0
  9
$DIMALTRND
 40
0.0
  9
$DIMAZIN
 70
     0
  9
$DIMDSEP
 70
    46
  9
$DIMATFIT
 70
     3
  9
$DIMFRAC
 70
     0
  9
$DIMLDRBLK
  1

  9
$DIMLUNIT
 70
     2
  9
$DIMLWD
 70
    -2
  9
$DIMLWE
 70
    -2
  9
$DIMTMOVE
 70
     0
  9
$DIMFXL
 40
1.0
  9
$DIMFXLON
 70
     0
  9
$DIMJOGANG
 40
0.7853981633974483
  9
$DIMTFILL
 70
     0
  9
$DIMTFILLCLR
 70
     0
  9
$DIMARCSYM
 70
     0
  9
$DIMLTYPE
  6

  9
$DIMLTEX1
  6

  9
$DIMLTEX2
  6

  9
$DIMTXTDIRECTION
 70
     0
  9
$LUNITS
 70
     2
  9
$LUPREC
 70
     4
  9
$SKETCHINC
 40
0.1
  9
$FILLETRAD
 40
0.0
  9
$AUNITS
 70
     0
  9
$AUPREC
 70
     0
  9
$MENU
  1
tcad-s
  9
$ELEVATION
 40
0.0
  9
$PELEVATION
 40
0.0
  9
$THICKNESS
 40
0.0
  9
$LIMCHECK
 70
     0
  9
$CHAMFERA
 40
0.0
  9
$CHAMFERB
 40
0.0
  9
$CHAMFERC
 40
0.0
  9
$CHAMFERD
 40
0.0
  9
$SKPOLY
 70
     0
  9
$TDCREATE
 40
2451243.492210648
  9
$TDUCREATE
 40
2451243.117210648
  9
$TDUPDATE
 40
2460334.555451389
  9
$TDUUPDATE
 40
2460334.180451389
  9
$TDINDWG
 40
0.0343425926
  9
$TDUSRTIMER
 40
0.0343425926
  9
$USRTIMER
 70
     1
  9
$ANGBASE
 50
0.0
  9
$ANGDIR
 70
     0
  9
$PDMODE
 70
     0
  9
$PDSIZE
 40
2.399999999999999
  9
$PLINEWID
 40
0.0
  9
$SPLFRAME
 70
     0
  9
$SPLINETYPE
 70
     6
  9
$SPLINESEGS
 70
     8
  9
$HANDSEED
  5
47C8
  9
$SURFTAB1
 70
     6
  9
$SURFTAB2
 70
     6
  9
$SURFTYPE
 70
     6
  9
$SURFU
 70
     6
  9
$SURFV
 70
     6
  9
$UCSBASE
  2

  9
$UCSNAME
  2

  9
$UCSORG
 10
0.0
 20
0.0
 30
0.0
  9
$UCSXDIR
 10
1.0
 20
0.0
 30
0.0
  9
$UCSYDIR
 10
0.0
 20
1.0
 30
0.0
  9
$UCSORTHOREF
  2

  9
$UCSORTHOVIEW
 70
     0
  9
$UCSORGTOP
 10
0.0
 20
0.0
 30
0.0
  9
$UCSORGBOTTOM
 10
0.0
 20
0.0
 30
0.0
  9
$UCSORGLEFT
 10
0.0
 20
0.0
 30
0.0
  9
$UCSORGRIGHT
 10
0.0
 20
0.0
 30
0.0
  9
$UCSORGFRONT
 10
0.0
 20
0.0
 30
0.0
  9
$UCSORGBACK
 10
0.0
 20
0.0
 30
0.0
  9
$PUCSBASE
  2

  9
$PUCSNAME
  2

  9
$PUCSORG
 10
0.0
 20
0.0
 30
0.0
  9
$PUCSXDIR
 10
1.0
 20
0.0
 30
0.0
  9
$PUCSYDIR
 10
0.0
 20
1.0
 30
0.0
  9
$PUCSORTHOREF
  2

  9
$PUCSORTHOVIEW
 70
     0
  9
$PUCSORGTOP
 10
0.0
 20
0.0
 30
0.0
  9
$PUCSORGBOTTOM
 10
0.0
 20
0.0
 30
0.0
  9
$PUCSORGLEFT
 10
0.0
 20
0.0
 30
0.0
  9
$PUCSORGRIGHT
 10
0.0
 20
0.0
 30
0.0
  9
$PUCSORGFRONT
 10
0.0
 20
0.0
 30
0.0
  9
$PUCSORGBACK
 10
0.0
 20
0.0
 30
0.0
  9
$USERI1
 70
     0
  9
$USERI2
 70
     0
  9
$USERI3
 70
     0
  9
$USERI4
 70
     0
  9
$USERI5
 70
     0
  9
$USERR1
 40
0.0
  9
$USERR2
 40
0.0
  9
$USERR3
 40
0.0
  9
$USERR4
 40
0.0
  9
$USERR5
 40
0.0
  9
$WORLDVIEW
 70
     1
  9
$SHADEDGE
 70
     3
  9
$SHADEDIF
 70
    70
  9
$TILEMODE
 70
     1
  9
$MAXACTVP
 70
    16
  9
$PINSBASE
 10
0.0
 20
0.0
 30
0.0
  9
$PLIMCHECK
 70
     0
  9
$PEXTMIN
 10
1.000000000000000E+20
 20
1.000000000000000E+20
 30
1.000000000000000E+20
  9
$PEXTMAX
 10
-1.000000000000000E+20
 20
-1.000000000000000E+20
 30
-1.000000000000000E+20
  9
$PLIMMIN
 10
0.0
 20
0.0
  9
$PLIMMAX
 10
12.0
 20
9.0
  9
$UNITMODE
 70
     0
  9
$VISRETAIN
 70
     0
  9
$PLINEGEN
 70
     0
  9
$PSLTSCALE
 70
     0
  9
$TREEDEPTH
 70
  3020
  9
$CMLSTYLE
  2
STANDARD
  9
$CMLJUST
 70
     0
  9
$CMLSCALE
 40
1.0
  9
$PROXYGRAPHICS
 70
     1
  9
$MEASUREMENT
 70
     1
  9
$CELWEIGHT
370
    -1
  9
$ENDCAPS
280
     0
  9
$JOINSTYLE
280
     0
  9
$LWDISPLAY
290
     0
  9
$INSUNITS
 70
     0
  9
$HYPERLINKBASE
  1

  9
$STYLESHEET
  1

  9
$XEDIT
290
     1
  9
$CEPSNTYPE
380
     0
  9
$PSTYLEMODE
290
     1
  9
$FINGERPRINTGUID
  2
{289C5AC7-9AD3-0E4D-890F-681C14DACB4A}
  9
$VERSIONGUID
  2
{705F61AA-D07C-D64D-8801-D731CCE7040D}
  9
$EXTNAMES
290
     1
  9
$PSVPSCALE
 40
0.0
  9
$OLESTARTUP
290
     0
  9
$SORTENTS
280
   127
  9
$INDEXCTL
280
     0
  9
$HIDETEXT
280
     0
  9
$XCLIPFRAME
280
     2
  9
$HALOGAP
280
     0
  9
$OBSCOLOR
 70
   257
  9
$OBSLTYPE
280
     0
  9
$INTERSECTIONDISPLAY
280
     0
  9
$INTERSECTIONCOLOR
 70
   257
  9
$DIMASSOC
280
     1
  9
$PROJECTNAME
  1

  9
$CAMERADISPLAY
290
     0
  9
$LENSLENGTH
 40
50.0
  9
$CAMERAHEIGHT
 40
0.0
  9
$STEPSPERSEC
 40
2.0
  9
$STEPSIZE
 40
6.0
  9
$3DDWFPREC
 40
2.0
  9
$PSOLWIDTH
 40
0.25
  9
$PSOLHEIGHT
 40
4.0
  9
$LOFTANG1
 40
1.570796326794896
  9
$LOFTANG2
 40
1.570796326794896
  9
$LOFTMAG1
 40
0.0
  9
$LOFTMAG2
 40
0.0
  9
$LOFTPARAM
 70
     7
  9
$LOFTNORMALS
280
     1
  9
$LATITUDE
 40
37.795
  9
$LONGITUDE
 40
-122.394
  9
$NORTHDIRECTION
 40
0.0
  9
$TIMEZONE
 70
 -8000
  9
$LIGHTGLYPHDISPLAY
280
     1
  9
$TILEMODELIGHTSYNCH
280
     1
  9
$CMATERIAL
347
45A8
  9
$SOLIDHIST
280
     0
  9
$SHOWHIST
280
     1
  9
$DWFFRAME
280
     2
  9
$DGNFRAME
280
     0
  9
$REALWORLDSCALE
290
     1
  9
$INTERFERECOLOR
 62
     1
  9
$INTERFEREOBJVS
345
45CA
  9
$INTERFEREVPVS
346
45C7
  9
$CSHADOW
280
     0
  9
$SHADOWPLANELOCATION
 40
0.0
  0
ENDSEC
  0
SECTION
  2
CLASSES
  0
CLASS
  1
DICTIONARYVAR
  2
AcDbDictionaryVar
  3
ObjectDBX Classes
 90
        0
 91
       41
280
     0
281
     0
  0
CLASS
  1
ACDBDICTIONARYWDFLT
  2
AcDbDictionaryWithDefault
  3
ObjectDBX Classes
 90
        0
 91
        1
280
     0
281
     0
  0
CLASS
  1
MATERIAL
  2
AcDbMaterial
  3
ObjectDBX Classes
 90
     1153
 91
        3
280
     0
281
     0
  0
CLASS
  1
VISUALSTYLE
  2
AcDbVisualStyle
  3
ObjectDBX Classes
 90
     4095
 91
       24
280
     0
281
     0
  0
CLASS
  1
TABLESTYLE
  2
AcDbTableStyle
  3
ObjectDBX Classes
 90
     4095
 91
        1
280
     0
281
     0
  0
CLASS
  1
SCALE
  2
AcDbScale
  3
ObjectDBX Classes
 90
     1153
 91
       17
280
     0
281
     0
  0
CLASS
  1
MLEADERSTYLE
  2
AcDbMLeaderStyle
  3
ACDB_MLEADERSTYLE_CLASS
 90
     4095
 91
        1
280
     0
281
     0
  0
CLASS
  1
ACDBSECTIONVIEWSTYLE
  2
AcDbSectionViewStyle
  3
ObjectDBX Classes
 90
     1025
 91
        1
280
     0
281
     0
  0
CLASS
  1
ACDBDETAILVIEWSTYLE
  2
AcDbDetailViewStyle
  3
ObjectDBX Classes
 90
     1025
 91
        1
280
     0
281
     0
  0
CLASS
  1
SORTENTSTABLE
  2
AcDbSortentsTable
  3
ObjectDBX Classes
 90
        0
 91
        1
280
     0
281
     0
  0
CLASS
  1
CELLSTYLEMAP
  2
AcDbCellStyleMap
  3
ObjectDBX Classes
 90
     1152
 91
        1
280
     0
281
     0
  0
ENDSEC
  0
SECTION
  2
TABLES
  0
TABLE
  2
VPORT
  5
8
330
0
100
AcDbSymbolTable
 70
     1
  0
VPORT
  5
45A3
330
8
100
AcDbSymbolTableRecord
100
AcDbViewportTableRecord
  2
*ACTIVE
 70
     0
 10
0.0
 20
0.0
 11
1.0
 21
1.0
 12
1088.376494123024
 22
30.46413389504505
 13
0.0
 23
0.0
 14
1.0
 24
1.0
 15
0.0
 25
0.0
 16
0.0
 26
0.0
 36
1.0
 17
0.0
 27
0.0
 37
0.0
 40
1034.158704163839
 41
2.137626262626262
 42
50.0
 43
0.0
 44
0.0
 50
0.0
 51
0.0
 71
     0
 72
  1000
 73
     1
 74
     1
 75
     0
 76
     0
 77
     0
 78
     1
281
     0
 65
     1
110
0.0
120
0.0
130
0.0
111
1.0
121
0.0
131
0.0
112
0.0
122
1.0
132
0.0
 79
     0
146
0.0
348
45C6
 60
     3
 61
     5
292
     1
282
     1
141
0.0
142
0.0
 63
   250
421
  3355443
1001
ACAD_NAV_VCDISPLAY
1070
     3
  0
ENDTAB
  0
TABLE
  2
LTYPE
  5
5
330
0
100
AcDbSymbolTable
 70
    10
  0
LTYPE
  5
11
330
5
100
AcDbSymbolTableRecord
100
AcDbLinetypeTableRecord
  2
BYBLOCK
 70
     0
  3

 72
    65
 73
     0
 40
0.0
  0
LTYPE
  5
12
330
5
100
AcDbSymbolTableRecord
100
AcDbLinetypeTableRecord
  2
BYLAYER
 70
     0
  3

 72
    65
 73
     0
 40
0.0
  0
LTYPE
  5
13
330
5
100
AcDbSymbolTableRecord
100
AcDbLinetypeTableRecord
  2
CONTINUOUS
 70
     0
  3
Solid line
 72
    65
 73
     0
 40
0.0
  0
LTYPE
  5
3C
330
5
100
AcDbSymbolTableRecord
100
AcDbLinetypeTableRecord
  2
CENTER
 70
     0
  3
____ _ ____ _ ____ _ ____ _ ____ _ ____ _ ____ 
 72
    65
 73
     4
 40
2.0
 49
1.25
 74
     0
 49
-0.25
 74
     0
 49
0.25
 74
     0
 49
-0.25
 74
     0
  0
LTYPE
  5
3D
330
5
100
AcDbSymbolTableRecord
100
AcDbLinetypeTableRecord
  2
PHANTOM1
 70
     0
  3
______  __  __  ______  __  __  ______  __  __ 
 72
    65
 73
     6
 40
2.5
 49
1.25
 74
     0
 49
-0.25
 74
     0
 49
0.25
 74
     0
 49
-0.25
 74
     0
 49
0.25
 74
     0
 49
-0.25
 74
     0
  0
LTYPE
  5
1141
330
5
100
AcDbSymbolTableRecord
100
AcDbLinetypeTableRecord
  2
PHANTOM2
 70
     0
  3
Phantom (.5x) ___ _ _ ___ _ _ ___ _ _ ___ _ _
 72
    65
 73
     6
 40
31.75
 49
15.875
 74
     0
 49
-3.174999999999999
 74
     0
 49
3.174999999999999
 74
     0
 49
-3.174999999999999
 74
     0
 49
3.174999999999999
 74
     0
 49
-3.174999999999999
 74
     0
  0
LTYPE
  5
1152
330
5
100
AcDbSymbolTableRecord
100
AcDbLinetypeTableRecord
  2
HIDDEN2
 70
     0
  3
Hidden (.5x) _ _ _ _ _ _ _ _ _ _ _ _ _ _ _ _ _
 72
    65
 73
     2
 40
4.762499999999999
 49
3.174999999999999
 74
     0
 49
-1.587499999999999
 74
     0
  0
LTYPE
  5
1156
330
5
100
AcDbSymbolTableRecord
100
AcDbLinetypeTableRecord
  2
HIDDENX2
 70
     0
  3
Hidden (2x) ____ ____ ____ ____ ____ ____ ____
 72
    65
 73
     2
 40
19.05
 49
12.7
 74
     0
 49
-6.349999999999999
 74
     0
  0
LTYPE
  5
1FAC
330
5
100
AcDbSymbolTableRecord
100
AcDbLinetypeTableRecord
  2
PHANTOM
 70
     0
  3
______  __  __  ______  __  __  ______  __  __ 
 72
    65
 73
     6
 40
2.5
 49
1.25
 74
     0
 49
-0.25
 74
     0
 49
0.25
 74
     0
 49
-0.25
 74
     0
 49
0.25
 74
     0
 49
-0.25
 74
     0
  0
LTYPE
  5
3D92
330
5
100
AcDbSymbolTableRecord
100
AcDbLinetypeTableRecord
  2
DASHED
 70
     0
  3
__ __ __ __ __ __ __ __ __ __ __ __ __ __ __
 72
    65
 73
     2
 40
0.75
 49
0.5
 74
     0
 49
-0.25
 74
     0
  0
ENDTAB
  0
TABLE
  2
LAYER
  5
2
102
{ACAD_XDICTIONARY
360
47AC
102
}
330
0
100
AcDbSymbolTable
 70
    18
  0
LAYER
  5
E
102
{ACAD_XDICTIONARY
360
45FE
102
}
330
2
100
AcDbSymbolTableRecord
100
AcDbLayerTableRecord
  2
0
 70
     0
 62
     7
  6
CONTINUOUS
370
    -3
390
45A6
347
45B8
348
0
  0
LAYER
  5
40
102
{ACAD_XDICTIONARY
360
4600
102
}
330
2
100
AcDbSymbolTableRecord
100
AcDbLayerTableRecord
  2
C1
 70
     0
 62
     5
  6
CONTINUOUS
370
    -3
390
45A6
347
45B8
348
0
  0
LAYER
  5
41
102
{ACAD_XDICTIONARY
360
4602
102
}
330
2
100
AcDbSymbolTableRecord
100
AcDbLayerTableRecord
  2
C2
 70
     0
 62
     1
  6
CONTINUOUS
370
    -3
390
45A6
347
45B8
348
0
  0
LAYER
  5
42
102
{ACAD_XDICTIONARY
360
4604
102
}
330
2
100
AcDbSymbolTableRecord
100
AcDbLayerTableRecord
  2
C3
 70
     0
 62
     6
  6
CONTINUOUS
370
    -3
390
45A6
347
45B8
348
0
  0
LAYER
  5
43
102
{ACAD_XDICTIONARY
360
4606
102
}
330
2
100
AcDbSymbolTableRecord
100
AcDbLayerTableRecord
  2
C4
 70
     0
 62
     3
  6
CONTINUOUS
370
    -3
390
45A6
347
45B8
348
0
  0
LAYER
  5
44
102
{ACAD_XDICTIONARY
360
4608
102
}
330
2
100
AcDbSymbolTableRecord
100
AcDbLayerTableRecord
  2
C5
 70
     0
 62
     4
  6
CONTINUOUS
370
    -3
390
45A6
347
45B8
348
0
  0
LAYER
  5
45
102
{ACAD_XDICTIONARY
360
460A
102
}
330
2
100
AcDbSymbolTableRecord
100
AcDbLayerTableRecord
  2
C6
 70
     0
 62
     2
  6
CONTINUOUS
370
    -3
390
45A6
347
45B8
348
0
  0
LAYER
  5
46
102
{ACAD_XDICTIONARY
360
460C
102
}
330
2
100
AcDbSymbolTableRecord
100
AcDbLayerTableRecord
  2
C7
 70
     0
 62
     7
  6
CONTINUOUS
370
    -3
390
45A6
347
45B8
348
0
  0
LAYER
  5
47
102
{ACAD_XDICTIONARY
360
460E
102
}
330
2
100
AcDbSymbolTableRecord
100
AcDbLayerTableRecord
  2
HOJYOSEN
 70
     0
 62
     5
  6
CONTINUOUS
370
    -3
390
45A6
347
45B8
348
0
  0
LAYER
  5
48
102
{ACAD_XDICTIONARY
360
4610
102
}
330
2
100
AcDbSymbolTableRecord
100
AcDbLayerTableRecord
  2
BUNKATUTEN
 70
     0
 62
     5
  6
CONTINUOUS
370
    -3
390
45A6
347
45B8
348
0
  0
LAYER
  5
49
102
{ACAD_XDICTIONARY
360
4612
102
}
330
2
100
AcDbSymbolTableRecord
100
AcDbLayerTableRecord
  2
SUNPOU
 70
     0
 62
     2
  6
CONTINUOUS
370
    -3
390
45A6
347
45B8
348
0
  0
LAYER
  5
4A
102
{ACAD_XDICTIONARY
360
4614
102
}
330
2
100
AcDbSymbolTableRecord
100
AcDbLayerTableRecord
  2
SUNPOUN
 70
     0
 62
     2
  6
CONTINUOUS
370
    -3
390
45A6
347
45B8
348
0
  0
LAYER
  5
4B
102
{ACAD_XDICTIONARY
360
4616
102
}
330
2
100
AcDbSymbolTableRecord
100
AcDbLayerTableRecord
  2
SUNPOUA
 70
     0
 62
     2
  6
CONTINUOUS
370
    -3
390
45A6
347
45B8
348
0
  0
LAYER
  5
4C
102
{ACAD_XDICTIONARY
360
4618
102
}
330
2
100
AcDbSymbolTableRecord
100
AcDbLayerTableRecord
  2
WAKU
 70
     0
 62
     5
  6
CONTINUOUS
370
    -3
390
45A6
347
45B8
348
0
  0
LAYER
  5
E1F
330
2
100
AcDbSymbolTableRecord
100
AcDbLayerTableRecord
  2
DEFPOINTS
 70
     0
 62
     7
  6
CONTINUOUS
290
     0
370
    -3
390
45A6
347
45B8
348
0
  0
LAYER
  5
28F8
102
{ACAD_XDICTIONARY
360
461A
102
}
330
2
100
AcDbSymbolTableRecord
100
AcDbLayerTableRecord
  2
CENTER
 70
     0
 62
     1
  6
CENTER
370
    -3
390
45A6
347
45B8
348
0
  0
LAYER
  5
28F9
102
{ACAD_XDICTIONARY
360
461C
102
}
330
2
100
AcDbSymbolTableRecord
100
AcDbLayerTableRecord
  2
SCALE
 70
     0
 62
     4
  6
CONTINUOUS
370
    -3
390
45A6
347
45B8
348
0
  0
LAYER
  5
42FD
102
{ACAD_XDICTIONARY
360
461E
102
}
330
2
100
AcDbSymbolTableRecord
100
AcDbLayerTableRecord
  2
GAWA
 70
     0
 62
     6
  6
CONTINUOUS
370
    -3
390
45A6
347
45B8
348
0
  0
ENDTAB
  0
TABLE
  2
STYLE
  5
3
330
0
100
AcDbSymbolTable
 70
     5
  0
STYLE
  5
F
330
3
100
AcDbSymbolTableRecord
100
AcDbTextStyleTableRecord
  2
STANDARD
 70
     0
 40
0.0
 41
1.0
 50
0.0
 71
     0
 42
0.2
  3
txt
  4

  0
STYLE
  5
3B
330
3
100
AcDbSymbolTableRecord
100
AcDbTextStyleTableRecord
  2
KANJI
 70
     0
 40
0.0
 41
1.0
 50
0.0
 71
     0
 42
2.299999999999999
  3
simplex
  4
bigfont
  0
STYLE
  5
113E
330
3
100
AcDbSymbolTableRecord
100
AcDbTextStyleTableRecord
  2

 70
     1
 40
0.0
 41
1.0
 50
0.0
 71
     0
 42
3.0
  3
ltypeshp.shx
  4

  0
STYLE
  5
28FA
330
3
100
AcDbSymbolTableRecord
100
AcDbTextStyleTableRecord
  2
CMP-SET
 70
     0
 40
0.0
 41
1.0
 50
0.0
 71
     0
 42
3.0
  3
SIMPLEX
  4
BIGFONT
  0
STYLE
  5
3D93
330
3
100
AcDbSymbolTableRecord
100
AcDbTextStyleTableRecord
  2
SMP-SET
 70
     0
 40
0.0
 41
1.0
 50
0.0
 71
     0
 42
4.2
  3
SIMPLEX
  4
BIGFONT
  0
ENDTAB
  0
TABLE
  2
VIEW
  5
6
330
0
100
AcDbSymbolTable
 70
     1
  0
ENDTAB
  0
TABLE
  2
UCS
  5
7
330
0
100
AcDbSymbolTable
 70
     0
  0
ENDTAB
  0
TABLE
  2
APPID
  5
9
330
0
100
AcDbSymbolTable
 70
     3
  0
APPID
  5
10
330
9
100
AcDbSymbolTableRecord
100
AcDbRegAppTableRecord
  2
ACAD
 70
     0
  0
APPID
  5
4620
330
9
100
AcDbSymbolTableRecord
100
AcDbRegAppTableRecord
  2
ACAD_NAV_VCDISPLAY
 70
     0
  0
APPID
  5
46E9
330
9
100
AcDbSymbolTableRecord
100
AcDbRegAppTableRecord
  2
ACAD_EXEMPT_FROM_CAD_STANDARDS
 70
     0
  0
ENDTAB
  0
TABLE
  2
DIMSTYLE
  5
A
330
0
100
AcDbSymbolTable
 70
     3
100
AcDbDimStyleTable
 71
     1
340
E11
  0
DIMSTYLE
105
E11
330
A
100
AcDbSymbolTableRecord
100
AcDbDimStyleTableRecord
  2
STANDARD
 70
     0
 41
1.0
 42
1.0
 43
6.0
 44
1.0
 73
     0
 74
     0
 77
     1
 78
     8
140
2.5
141
0.0
147
0.5
172
     1
173
     1
284
     8
285
     8
286
     8
340
3B
341
39F6
343
39F6
344
39F6
  0
DIMSTYLE
105
3BD6
330
A
100
AcDbSymbolTableRecord
100
AcDbDimStyleTableRecord
  2
STANDARD1
 70
     0
 41
1.0
 42
1.0
 43
6.0
 44
1.0
 73
     0
 74
     0
 77
     1
 78
     8
140
2.5
141
0.0
147
0.5
172
     1
173
     1
284
     8
285
     8
286
     8
340
3B
341
FB2
343
FB2
344
FB2
  0
ENDTAB
  0
TABLE
  2
BLOCK_RECORD
  5
1
330
0
100
AcDbSymbolTable
 70
    31
  0
BLOCK_RECORD
  5
17
102
{ACAD_XDICTIONARY
360
4756
102
}
330
1
100
AcDbSymbolTableRecord
100
AcDbBlockTableRecord
  2
*MODEL_SPACE
340
45F6
 70
     0
280
     1
281
     0
  0
BLOCK_RECORD
  5
14
330
1
100
AcDbSymbolTableRecord
100
AcDbBlockTableRecord
  2
*PAPER_SPACE
340
45F7
 70
     0
280
     1
281
     0
  0
BLOCK_RECORD
  5
FB2
330
1
100
AcDbSymbolTableRecord
100
AcDbBlockTableRecord
  2
Y1
340
0
 70
     0
280
     1
281
     0
  0
BLOCK_RECORD
  5
1309
330
1
100
AcDbSymbolTableRecord
100
AcDbBlockTableRecord
  2
A4
340
0
 70
     0
280
     1
281
     0
  0
BLOCK_RECORD
  5
39F6
330
1
100
AcDbSymbolTableRecord
100
AcDbBlockTableRecord
  2
Y2
340
0
 70
     0
280
     1
281
     0
  0
BLOCK_RECORD
  5
3ADE
330
1
100
AcDbSymbolTableRecord
100
AcDbBlockTableRecord
  2
A3
340
0
 70
     0
280
     1
281
     0
  0
BLOCK_RECORD
  5
3C55
330
1
100
AcDbSymbolTableRecord
100
AcDbBlockTableRecord
  2
YAZ1
340
0
102
{BLKREFS
331
3C5D
102
}
 70
     0
280
     1
281
     0
  0
BLOCK_RECORD
  5
3C5B
330
1
100
AcDbSymbolTableRecord
100
AcDbBlockTableRecord
  2
YAZ3
340
0
102
{BLKREFS
331
3E8F
331
3E96
331
3EBF
331
3EDB
331
3EE0
331
3EF6
331
3EFC
331
432D
331
433A
331
433E
331
3C7C
331
3C7D
331
3C89
331
3C8A
331
3C97
331
3C98
331
3CA4
331
3CA5
331
3CB2
331
3CB3
331
3CC0
331
3CC1
331
3CCE
331
3CCF
331
3CDD
331
3CDE
331
3CEC
331
3CED
331
3C64
331
3C65
331
3C70
331
3C71
331
3CFB
331
3CFC
331
3D0A
331
3D0B
331
3D25
331
3D26
331
3D31
331
3D32
331
3D5A
331
3D5B
331
3DAA
331
3DAE
331
3DF2
331
3DF6
331
3DFA
331
3DFE
331
3E20
331
3E38
102
}
 70
     0
280
     1
281
     0
  0
BLOCK_RECORD
  5
3C60
330
1
100
AcDbSymbolTableRecord
100
AcDbBlockTableRecord
  2
*D6
340
0
 70
     0
280
     1
281
     0
  0
BLOCK_RECORD
  5
3C6C
330
1
100
AcDbSymbolTableRecord
100
AcDbBlockTableRecord
  2
*D7
340
0
 70
     0
280
     1
281
     0
  0
BLOCK_RECORD
  5
3C78
330
1
100
AcDbSymbolTableRecord
100
AcDbBlockTableRecord
  2
*D8
340
0
 70
     0
280
     1
281
     0
  0
BLOCK_RECORD
  5
3C84
330
1
100
AcDbSymbolTableRecord
100
AcDbBlockTableRecord
  2
*D9
340
0
 70
     0
280
     1
281
     0
  0
BLOCK_RECORD
  5
3C92
330
1
100
AcDbSymbolTableRecord
100
AcDbBlockTableRecord
  2
*D10
340
0
 70
     0
280
     1
281
     0
  0
BLOCK_RECORD
  5
3CA0
330
1
100
AcDbSymbolTableRecord
100
AcDbBlockTableRecord
  2
*D11
340
0
 70
     0
280
     1
281
     0
  0
BLOCK_RECORD
  5
3CAC
330
1
100
AcDbSymbolTableRecord
100
AcDbBlockTableRecord
  2
*D12
340
0
 70
     0
280
     1
281
     0
  0
BLOCK_RECORD
  5
3CBB
330
1
100
AcDbSymbolTableRecord
100
AcDbBlockTableRecord
  2
*D13
340
0
 70
     0
280
     1
281
     0
  0
BLOCK_RECORD
  5
3CC9
330
1
100
AcDbSymbolTableRecord
100
AcDbBlockTableRecord
  2
*D14
340
0
 70
     0
280
     1
281
     0
  0
BLOCK_RECORD
  5
3CD7
330
1
100
AcDbSymbolTableRecord
100
AcDbBlockTableRecord
  2
*D15
340
0
 70
     0
280
     1
281
     0
  0
BLOCK_RECORD
  5
3CE6
330
1
100
AcDbSymbolTableRecord
100
AcDbBlockTableRecord
  2
*D16
340
0
 70
     0
280
     1
281
     0
  0
BLOCK_RECORD
  5
3CF5
330
1
100
AcDbSymbolTableRecord
100
AcDbBlockTableRecord
  2
*D17
340
0
 70
     0
280
     1
281
     0
  0
BLOCK_RECORD
  5
3D04
330
1
100
AcDbSymbolTableRecord
100
AcDbBlockTableRecord
  2
*D18
340
0
 70
     0
280
     1
281
     0
  0
BLOCK_RECORD
  5
3D13
330
1
100
AcDbSymbolTableRecord
100
AcDbBlockTableRecord
  2
*X19
340
0
102
{BLKREFS
331
3F01
102
}
 70
     0
280
     1
281
     0
  0
BLOCK_RECORD
  5
3D21
330
1
100
AcDbSymbolTableRecord
100
AcDbBlockTableRecord
  2
*D20
340
0
 70
     0
280
     1
281
     0
  0
BLOCK_RECORD
  5
3D2D
330
1
100
AcDbSymbolTableRecord
100
AcDbBlockTableRecord
  2
*D21
340
0
 70
     0
280
     1
281
     0
  0
BLOCK_RECORD
  5
3D39
330
1
100
AcDbSymbolTableRecord
100
AcDbBlockTableRecord
  2
*X22
340
0
102
{BLKREFS
331
3E11
102
}
 70
     0
280
     1
281
     0
  0
BLOCK_RECORD
  5
3D55
330
1
100
AcDbSymbolTableRecord
100
AcDbBlockTableRecord
  2
*D23
340
0
 70
     0
280
     1
281
     0
  0
BLOCK_RECORD
  5
3D63
330
1
100
AcDbSymbolTableRecord
100
AcDbBlockTableRecord
  2
YAN2
340
0
102
{BLKREFS
331
3E87
331
3E98
331
3ECB
331
3ECC
331
3ED4
331
3ED6
331
4316
331
4317
331
4318
331
431B
331
4323
331
4329
331
432F
331
4330
331
4336
331
436B
331
4370
331
4371
331
438B
331
438C
331
438F
331
43A7
331
43B2
331
43B3
331
43B9
331
43BD
331
43BE
331
3DBB
331
3DC0
331
3E43
331
3E4B
331
3E4F
331
3E51
331
43C8
331
4423
331
4429
331
442F
331
4430
102
}
 70
     0
280
     1
281
     0
  0
BLOCK_RECORD
  5
3D67
330
1
100
AcDbSymbolTableRecord
100
AcDbBlockTableRecord
  2
TMP027805
340
0
102
{BLKREFS
331
3D95
102
}
 70
     0
280
     1
281
     0
  0
BLOCK_RECORD
  5
3D94
330
1
100
AcDbSymbolTableRecord
100
AcDbBlockTableRecord
  2
A$C091735BD
340
0
 70
     0
280
     1
281
     0
  0
BLOCK_RECORD
  5
42CA
330
1
100
AcDbSymbolTableRecord
100
AcDbBlockTableRecord
  2
A3B
340
0
102
{BLKREFS
331
430D
102
}
 70
     0
280
     1
281
     0
  0
BLOCK_RECORD
  5
42D1
330
1
100
AcDbSymbolTableRecord
100
AcDbBlockTableRecord
  2
P2BL145
340
0
102
{BLKREFS
331
4366
102
}
 70
     0
280
     1
281
     0
  0
BLOCK_RECORD
  5
42FE
330
1
100
AcDbSymbolTableRecord
100
AcDbBlockTableRecord
  2
A$C7CF544CF
340
0
 70
     0
280
     1
281
     0
  0
ENDTAB
  0
ENDSEC
  0
SECTION
  2
BLOCKS
  0
BLOCK
  5
4F
330
17
100
AcDbEntity
  8
0
100
AcDbBlockBegin
  2
*MODEL_SPACE
 70
     0
 10
0.0
 20
0.0
 30
0.0
  3
*MODEL_SPACE
  1

  0
ENDBLK
  5
50
330
17
100
AcDbEntity
  8
0
100
AcDbBlockEnd
  0
BLOCK
  5
4D
330
14
100
AcDbEntity
 67
     1
  8
0
100
AcDbBlockBegin
  2
*PAPER_SPACE
 70
     0
 10
0.0
 20
0.0
 30
0.0
  3
*PAPER_SPACE
  1

  0
ENDBLK
  5
4E
330
14
100
AcDbEntity
 67
     1
  8
0
100
AcDbBlockEnd
  0
BLOCK
  5
1487
330
FB2
100
AcDbEntity
  8
0
 48
2.0
100
AcDbBlockBegin
  2
Y1
 70
     0
 10
0.0
 20
0.0
 30
0.0
  3
Y1
  1

  0
LINE
  5
1488
330
FB2
100
AcDbEntity
  8
0
  6
ByBlock
 62
     0
 48
2.0
100
AcDbLine
 10
-4.000000000000056
 20
-0.0000000000000142
 30
0.0
 11
-0.0000000000000568
 21
0.0
 31
0.0
  0
SOLID
  5
1489
330
FB2
100
AcDbEntity
  8
0
  6
ByBlock
 62
     0
100
AcDbTrace
 10
-1.811110924292108
 20
0.485285709567151
 30
0.0
 11
-1.811110924292108
 21
-0.4852857095673784
 31
0.0
 12
-0.0000000000000568
 22
-0.0000000000000142
 32
0.0
 13
-0.0000000000000568
 23
-0.0000000000000142
 33
0.0
  0
ENDBLK
  5
148A
330
FB2
100
AcDbEntity
  8
0
 48
2.0
100
AcDbBlockEnd
  0
BLOCK
  5
15CD
330
1309
100
AcDbEntity
  8
0
 48
2.0
100
AcDbBlockBegin
  2
A4
 70
     0
 10
0.0
 20
0.0
 30
0.0
  3
A4
  1

  0
TRACE
  5
15CE
330
1309
100
AcDbEntity
  8
C6
 48
2.0
100
AcDbTrace
 10
67.59999999999999
 20
15.09999999999999
 30
0.0
 11
67.59999999999999
 21
14.9
 31
0.0
 12
119.4
 22
15.09999999999999
 32
0.0
 13
119.4
 23
14.9
 33
0.0
  0
TRACE
  5
15CF
330
1309
100
AcDbEntity
  8
C6
 48
2.0
100
AcDbTrace
 10
67.59999999999999
 20
8.100000000000008
 30
0.0
 11
67.59999999999999
 21
7.900000000000019
 31
0.0
 12
177.5
 22
8.099999999999994
 32
0.0
 13
177.5
 23
7.900000000000005
 33
0.0
  0
TRACE
  5
15D0
330
1309
100
AcDbEntity
  8
C6
 48
2.0
100
AcDbTrace
 10
67.59999999999999
 20
18.00505401940799
 30
0.0
 11
67.59999999999999
 21
17.805054019408
 31
0.0
 12
177.5
 22
18.00505401940799
 32
0.0
 13
177.5
 23
17.805054019408
 33
0.0
  0
TRACE
  5
15D1
330
1309
100
AcDbEntity
  8
C6
 48
2.0
100
AcDbTrace
 10
67.59999999999999
 20
30.10906427394033
 30
0.0
 11
67.59999999999999
 21
29.90906427394035
 31
0.0
 12
119.5
 22
30.10906427394033
 32
0.0
 13
119.5
 23
29.90906427394035
 33
0.0
  0
TRACE
  5
15D2
330
1309
100
AcDbEntity
  8
C6
 48
2.0
100
AcDbTrace
 10
67.59999999999999
 20
33.10906427394034
 30
0.0
 11
67.59999999999999
 21
32.90906427394034
 31
0.0
 12
177.5
 22
33.10906427394034
 32
0.0
 13
177.5
 23
32.90906427394034
 33
0.0
  0
TRACE
  5
15D3
330
1309
100
AcDbEntity
  8
C6
 48
2.0
100
AcDbTrace
 10
67.59999999999999
 20
43.04131111517844
 30
0.0
 11
67.59999999999999
 21
42.84131111517845
 31
0.0
 12
177.5
 22
43.04131111517844
 32
0.0
 13
177.5
 23
42.84131111517845
 33
0.0
  0
TRACE
  5
15D4
330
1309
100
AcDbEntity
  8
C6
 48
2.0
100
AcDbTrace
 10
177.5
 20
52.63548800585798
 30
0.0
 11
177.5
 21
52.83548800585797
 31
0.0
 12
67.5
 22
52.63548800585798
 32
0.0
 13
67.5
 23
52.83548800585797
 33
0.0
  0
LWPOLYLINE
  5
15D5
330
1309
100
AcDbEntity
  8
C6
100
AcDbPolyline
 90
        2
 70
     0
 43
0.0
 10
177.5
 20
52.73548800585797
 10
67.5
 20
52.73548800585797
  0
LWPOLYLINE
  5
15D6
330
1309
100
AcDbEntity
  8
C3
100
AcDbPolyline
 90
        4
 70
     1
 43
0.0
 10
0.0
 20
0.0
 10
0.0
 20
281.9999999999999
 10
177.5
 20
281.9999999999999
 10
177.5
 20
0.0
  0
LWPOLYLINE
  5
15D7
330
1309
100
AcDbEntity
  8
C6
100
AcDbPolyline
 90
        2
 70
     0
 43
0.0
 10
177.5
 20
8.0
 10
67.5
 20
8.0
  0
LWPOLYLINE
  5
15D8
330
1309
100
AcDbEntity
  8
C6
100
AcDbPolyline
 90
        2
 70
     0
 43
0.0
 10
177.5
 20
42.94131111517844
 10
67.5
 20
42.94131111517844
  0
LWPOLYLINE
  5
15D9
330
1309
100
AcDbEntity
  8
C6
100
AcDbPolyline
 90
        2
 70
     0
 43
0.0
 10
119.5
 20
17.905054019408
 10
67.5
 20
17.905054019408
  0
LWPOLYLINE
  5
15DA
330
1309
100
AcDbEntity
  8
C6
100
AcDbPolyline
 90
        2
 70
     0
 43
0.0
 10
119.5
 20
33.00906427394034
 10
67.5
 20
33.00906427394034
  0
LWPOLYLINE
  5
15DB
330
1309
100
AcDbEntity
  8
C6
100
AcDbPolyline
 90
        2
 70
     0
 43
0.0
 10
119.5
 20
30.00906427394034
 10
67.5
 20
30.00906427394034
  0
TEXT
  5
15DC
330
1309
100
AcDbEntity
  8
C6
100
AcDbText
 10
77.70802756244626
 20
1.0
 30
0.0
 40
4.0
  1
因幡電機産業株式会社　　因幡電工事業部
  7
KANJI
100
AcDbText
  0
LWPOLYLINE
  5
15DD
330
1309
100
AcDbEntity
  8
C6
100
AcDbPolyline
 90
        2
 70
     0
 43
0.0
 10
119.5
 20
15.0
 10
67.5
 20
15.0
  0
TEXT
  5
15DE
330
1309
100
AcDbEntity
  8
C6
100
AcDbText
 10
96.70854803474725
 20
30.50906427394034
 30
0.0
 40
2.0
  1
検  図
  7
KANJI
100
AcDbText
  0
TEXT
  5
15DF
330
1309
100
AcDbEntity
  8
C6
100
AcDbText
 10
83.70854650594628
 20
30.50906427394034
 30
0.0
 40
2.0
  1
製  図
  7
KANJI
100
AcDbText
  0
TEXT
  5
15E0
330
1309
100
AcDbEntity
  8
C6
100
AcDbText
 10
69.31078978584128
 20
30.50906427394034
 30
0.0
 40
2.0
  1
 設  計
  7
KANJI
100
AcDbText
  0
TRACE
  5
15E1
330
1309
100
AcDbEntity
  8
C6
 48
2.0
100
AcDbTrace
 10
93.59999999999997
 20
32.90906427394034
 30
0.0
 11
93.39999999999992
 21
32.90906427394034
 31
0.0
 12
93.60000000000008
 22
8.100000000000008
 32
0.0
 13
93.40000000000003
 23
8.100000000000008
 33
0.0
  0
TRACE
  5
15E2
330
1309
100
AcDbEntity
  8
C6
 48
2.0
100
AcDbTrace
 10
106.6
 20
32.90906427394034
 30
0.0
 11
106.4
 21
32.90906427394034
 31
0.0
 12
106.6
 22
15.09999999999999
 32
0.0
 13
106.4
 23
15.09999999999999
 33
0.0
  0
TRACE
  5
15E3
330
1309
100
AcDbEntity
  8
C6
 48
2.0
100
AcDbTrace
 10
80.6
 20
52.63548800585798
 30
0.0
 11
80.4
 21
52.63548800585798
 31
0.0
 12
80.6
 22
8.0
 32
0.0
 13
80.4
 23
8.0
 33
0.0
  0
TRACE
  5
15E4
330
1309
100
AcDbEntity
  8
C6
 48
2.0
100
AcDbTrace
 10
67.59999999999999
 20
52.83548800585797
 30
0.0
 11
67.40000000000001
 21
52.83548800585797
 31
0.0
 12
67.59999999999999
 22
0.0
 32
0.0
 13
67.40000000000001
 23
0.0
 33
0.0
  0
LINE
  5
15E5
330
1309
100
AcDbEntity
  8
C6
100
AcDbLine
 10
67.5
 20
0.0
 30
0.0
 11
67.5
 21
52.73548800585797
 31
0.0
  0
LINE
  5
15E6
330
1309
100
AcDbEntity
  8
C6
100
AcDbLine
 10
93.50000000000006
 20
8.0
 30
0.0
 11
93.49999999999994
 21
33.00906427394034
 31
0.0
  0
LINE
  5
15E7
330
1309
100
AcDbEntity
  8
C6
100
AcDbLine
 10
106.5
 20
15.0
 30
0.0
 11
106.5
 21
33.00906427394034
 31
0.0
  0
LINE
  5
15E8
330
1309
100
AcDbEntity
  8
C6
100
AcDbLine
 10
80.5
 20
15.0
 30
0.0
 11
80.5
 21
33.00906427394034
 31
0.0
  0
TRACE
  5
15E9
330
1309
100
AcDbEntity
  8
C6
 48
2.0
100
AcDbTrace
 10
73.59999999999999
 20
14.9
 30
0.0
 11
73.4
 21
14.9
 31
0.0
 12
73.60000000000002
 22
8.100000000000022
 32
0.0
 13
73.40000000000003
 23
8.100000000000022
 33
0.0
  0
LINE
  5
15EA
330
1309
100
AcDbEntity
  8
C6
100
AcDbLine
 10
73.5
 20
8.0
 30
0.0
 11
73.5
 21
15.0
 31
0.0
  0
TEXT
  5
15EB
330
1309
100
AcDbEntity
  8
C6
100
AcDbText
 10
69.24883720930234
 20
8.361472257828268
 30
0.0
 40
3.0
  1
度
  7
KANJI
100
AcDbText
  0
TEXT
  5
15EC
330
1309
100
AcDbEntity
  8
C6
100
AcDbText
 10
69.24883720930234
 20
11.73493865592149
 30
0.0
 40
3.0
  1
尺
  7
KANJI
100
AcDbText
  0
LINE
  5
15ED
330
1309
100
AcDbEntity
  8
C6
100
AcDbLine
 10
80.5
 20
8.0
 30
0.0
 11
80.5
 21
15.0
 31
0.0
  0
TEXT
  5
15EE
330
1309
100
AcDbEntity
  8
C6
100
AcDbText
 10
84.33448751076662
 20
34.00906427394034
 30
0.0
 40
3.5
  1
品　　名
  7
KANJI
100
AcDbText
  0
LINE
  5
15EF
330
1309
100
AcDbEntity
  8
C6
100
AcDbLine
 10
80.5
 20
33.00906427394034
 30
0.0
 11
80.5
 21
52.73548800585797
 31
0.0
  0
TRACE
  5
15F0
330
1309
100
AcDbEntity
  8
C6
 48
2.0
100
AcDbTrace
 10
104.6
 20
52.63548800585798
 30
0.0
 11
104.4
 21
52.63548800585798
 31
0.0
 12
104.6
 22
33.10906427394034
 32
0.0
 13
104.4
 23
33.10906427394034
 33
0.0
  0
LINE
  5
15F1
330
1309
100
AcDbEntity
  8
C6
100
AcDbLine
 10
104.5
 20
33.00906427394034
 30
0.0
 11
104.5
 21
52.73548800585797
 31
0.0
  0
TEXT
  5
15F2
330
1309
100
AcDbEntity
  8
C6
100
AcDbText
 10
109.428996079206
 20
30.50906427394034
 30
0.0
 40
2.0
  1
写  図
  7
KANJI
100
AcDbText
  0
TRACE
  5
15F3
330
1309
100
AcDbEntity
  8
C6
 48
2.0
100
AcDbTrace
 10
119.6000000000001
 20
32.90906427394034
 30
0.0
 11
119.4
 21
32.90906427394034
 31
0.0
 12
119.6000000000001
 22
8.0
 32
0.0
 13
119.4
 23
8.0
 33
0.0
  0
TRACE
  5
15F4
330
1309
100
AcDbEntity
  8
C6
 48
2.0
100
AcDbTrace
 10
127.6000000000001
 20
32.90906427394034
 30
0.0
 11
127.4
 21
32.90906427394034
 31
0.0
 12
127.6000000000001
 22
8.0
 32
0.0
 13
127.4
 23
8.0
 33
0.0
  0
LINE
  5
15F5
330
1309
100
AcDbEntity
  8
C6
100
AcDbLine
 10
119.5
 20
8.0
 30
0.0
 11
119.5
 21
33.00906427394034
 31
0.0
  0
LINE
  5
15F6
330
1309
100
AcDbEntity
  8
C6
100
AcDbLine
 10
127.5
 20
8.0
 30
0.0
 11
127.5
 21
33.00906427394034
 31
0.0
  0
LINE
  5
15F7
330
1309
100
AcDbEntity
  8
C6
100
AcDbLine
 10
127.5
 20
33.00906427394034
 30
0.0
 11
127.5
 21
15.0
 31
0.0
  0
TRACE
  5
15F8
330
1309
100
AcDbEntity
  8
C6
 48
2.0
100
AcDbTrace
 10
128.6585931668094
 20
25.00505401940799
 30
0.0
 11
128.6585931668094
 21
24.80505401940801
 31
0.0
 12
175.8838128050528
 22
25.00505401940799
 32
0.0
 13
175.8838128050528
 23
24.80505401940801
 33
0.0
  0
LWPOLYLINE
  5
15F9
330
1309
100
AcDbEntity
  8
C6
100
AcDbPolyline
 90
        2
 70
     0
 43
0.0
 10
177.5
 20
17.905054019408
 10
119.5
 20
17.905054019408
  0
LINE
  5
15FA
330
1309
100
AcDbEntity
  8
C6
100
AcDbLine
 10
128.6585931668094
 20
24.905054019408
 30
0.0
 11
175.8838128050528
 21
24.905054019408
 31
0.0
  0
TEXT
  5
15FB
330
1309
100
AcDbEntity
  8
C6
100
AcDbText
 10
121.8666666666667
 20
13.17631080998598
 30
0.0
 40
3.5
  1
図
  7
KANJI
 72
     1
 11
123.5
 21
13.17631080998598
 31
0.0
100
AcDbText
  0
LINE
  5
15FC
330
1309
100
AcDbEntity
  8
C6
100
AcDbLine
 10
127.5
 20
15.0
 30
0.0
 11
127.5
 21
8.0
 31
0.0
  0
TEXT
  5
15FD
330
1309
100
AcDbEntity
  8
C6
100
AcDbText
 10
121.8666666666667
 20
8.958066288225609
 30
0.0
 40
3.5
  1
番
  7
KANJI
 72
     1
 11
123.5
 21
8.958066288225609
 31
0.0
100
AcDbText
  0
TEXT
  5
15FE
330
1309
100
AcDbEntity
  8
C6
100
AcDbText
 10
121.8666666666667
 20
19.82715314655326
 30
0.0
 40
3.5
  1
称
  7
KANJI
 72
     1
 11
123.5
 21
23.32715314655326
 31
0.0
100
AcDbText
 73
     3
  0
TEXT
  5
15FF
330
1309
100
AcDbEntity
  8
C6
100
AcDbText
 10
121.9833333333334
 20
26.36365439785033
 30
0.0
 40
3.5
  1
名
  7
KANJI
 72
     1
 11
123.5
 21
26.36365439785033
 31
0.0
100
AcDbText
  0
LWPOLYLINE
  5
1600
330
1309
100
AcDbEntity
  8
C6
100
AcDbPolyline
 90
        2
 70
     0
 43
0.0
 10
177.5
 20
33.00906427394034
 10
119.5
 20
33.00906427394034
  0
TRACE
  5
1601
330
1309
100
AcDbEntity
  8
C6
 48
2.0
100
AcDbTrace
 10
128.6000000000001
 20
52.63548800585798
 30
0.0
 11
128.4
 21
52.63548800585798
 31
0.0
 12
128.6000000000001
 22
33.10906427394034
 32
0.0
 13
128.4
 23
33.10906427394034
 33
0.0
  0
LINE
  5
1602
330
1309
100
AcDbEntity
  8
C6
100
AcDbLine
 10
128.5
 20
33.00906427394034
 30
0.0
 11
128.5
 21
52.73548800585797
 31
0.0
  0
TEXT
  5
1603
330
1309
100
AcDbEntity
  8
C6
100
AcDbText
 10
108.3344875107667
 20
34.00906427394034
 30
0.0
 40
3.5
  1
材　　質
  7
KANJI
100
AcDbText
  0
TEXT
  5
1604
330
1309
100
AcDbEntity
  8
C6
100
AcDbText
 10
132.3344875107667
 20
34.00906427394034
 30
0.0
 40
3.5
  1
色　　調
  7
KANJI
100
AcDbText
  0
TEXT
  5
1605
330
1309
100
AcDbEntity
  8
C6
100
AcDbText
 10
156.3344875107667
 20
34.00906427394034
 30
0.0
 40
3.5
  1
備　　考
  7
KANJI
100
AcDbText
  0
TRACE
  5
1606
330
1309
100
AcDbEntity
  8
C6
 48
2.0
100
AcDbTrace
 10
152.6000000000001
 20
52.63548800585798
 30
0.0
 11
152.4
 21
52.63548800585798
 31
0.0
 12
152.6000000000001
 22
33.10906427394034
 32
0.0
 13
152.4
 23
33.10906427394034
 33
0.0
  0
LINE
  5
1607
330
1309
100
AcDbEntity
  8
C6
100
AcDbLine
 10
152.5
 20
33.00906427394034
 30
0.0
 11
152.5
 21
52.73548800585797
 31
0.0
  0
ENDBLK
  5
1608
330
1309
100
AcDbEntity
  8
0
 48
2.0
100
AcDbBlockEnd
  0
BLOCK
  5
39F7
330
39F6
100
AcDbEntity
  8
0
 48
2.0
100
AcDbBlockBegin
  2
Y2
 70
     0
 10
0.0
 20
0.0
 30
0.0
  3
Y2
  1

  0
SOLID
  5
39F8
330
39F6
100
AcDbEntity
  8
0
  6
ByBlock
 62
     0
100
AcDbTrace
 10
-1.811110924292108
 20
0.485285709567151
 30
0.0
 11
-1.811110924292108
 21
-0.4852857095673784
 31
0.0
 12
-0.0000000000000568
 22
-0.0000000000000142
 32
0.0
 13
-0.0000000000000568
 23
-0.0000000000000142
 33
0.0
  0
ENDBLK
  5
39F9
330
39F6
100
AcDbEntity
  8
0
 48
2.0
100
AcDbBlockEnd
  0
BLOCK
  5
3B19
330
3ADE
100
AcDbEntity
  8
0
 48
2.0
100
AcDbBlockBegin
  2
A3
 70
     0
 10
0.0
 20
0.0
 30
0.0
  3
A3
  1

  0
LWPOLYLINE
  5
3ADF
330
3ADE
100
AcDbEntity
  8
C3
  6
Continuous
100
AcDbPolyline
 90
        4
 70
     1
 43
0.0
 10
0.0
 20
0.0
 10
388.0
 20
0.0
 10
388.0
 20
282.0
 10
0.0
 20
282.0
  0
TRACE
  5
3AE0
330
3ADE
100
AcDbEntity
  8
C6
 48
2.0
100
AcDbTrace
 10
339.1585931668094
 20
25.00505401940799
 30
0.0
 11
339.1585931668094
 21
24.80505401940801
 31
0.0
 12
386.3838128050528
 22
25.00505401940799
 32
0.0
 13
386.3838128050528
 23
24.80505401940801
 33
0.0
  0
LWPOLYLINE
  5
3AE1
330
3ADE
100
AcDbEntity
  8
C6
100
AcDbPolyline
 90
        2
 70
     0
 43
0.0
 10
388.0
 20
17.905054019408
 10
330.0
 20
17.905054019408
  0
LINE
  5
3AE2
330
3ADE
100
AcDbEntity
  8
C6
100
AcDbLine
 10
339.1585931668094
 20
24.905054019408
 30
0.0
 11
386.3838128050528
 21
24.905054019408
 31
0.0
  0
LWPOLYLINE
  5
3AE3
330
3ADE
100
AcDbEntity
  8
C6
100
AcDbPolyline
 90
        2
 70
     0
 43
0.0
 10
388.0
 20
33.00906427394034
 10
330.0
 20
33.00906427394034
  0
TRACE
  5
3AE4
330
3ADE
100
AcDbEntity
  8
C6
 48
2.0
100
AcDbTrace
 10
278.0999999999999
 20
8.100000000000008
 30
0.0
 11
278.0999999999999
 21
7.900000000000019
 31
0.0
 12
388.0
 22
8.099999999999994
 32
0.0
 13
388.0
 23
7.900000000000005
 33
0.0
  0
TRACE
  5
3AE5
330
3ADE
100
AcDbEntity
  8
C6
 48
2.0
100
AcDbTrace
 10
278.0999999999999
 20
18.00505401940799
 30
0.0
 11
278.0999999999999
 21
17.805054019408
 31
0.0
 12
388.0
 22
18.00505401940799
 32
0.0
 13
388.0
 23
17.805054019408
 33
0.0
  0
TRACE
  5
3AE6
330
3ADE
100
AcDbEntity
  8
C6
 48
2.0
100
AcDbTrace
 10
278.0999999999999
 20
33.10906427394034
 30
0.0
 11
278.0999999999999
 21
32.90906427394034
 31
0.0
 12
388.0
 22
33.10906427394034
 32
0.0
 13
388.0
 23
32.90906427394034
 33
0.0
  0
TRACE
  5
3AE7
330
3ADE
100
AcDbEntity
  8
C6
 48
2.0
100
AcDbTrace
 10
278.0999999999999
 20
43.04131111517844
 30
0.0
 11
278.0999999999999
 21
42.84131111517845
 31
0.0
 12
388.0
 22
43.04131111517844
 32
0.0
 13
388.0
 23
42.84131111517845
 33
0.0
  0
TRACE
  5
3AE8
330
3ADE
100
AcDbEntity
  8
C6
 48
2.0
100
AcDbTrace
 10
388.0
 20
52.63548800585798
 30
0.0
 11
388.0
 21
52.83548800585797
 31
0.0
 12
277.9999999999999
 22
52.63548800585798
 32
0.0
 13
277.9999999999999
 23
52.83548800585797
 33
0.0
  0
LWPOLYLINE
  5
3AE9
330
3ADE
100
AcDbEntity
  8
C6
100
AcDbPolyline
 90
        2
 70
     0
 43
0.0
 10
388.0
 20
52.73548800585797
 10
277.9999999999999
 20
52.73548800585797
  0
LWPOLYLINE
  5
3AEA
330
3ADE
100
AcDbEntity
  8
C6
100
AcDbPolyline
 90
        2
 70
     0
 43
0.0
 10
388.0
 20
8.0
 10
277.9999999999999
 20
8.0
  0
LWPOLYLINE
  5
3AEB
330
3ADE
100
AcDbEntity
  8
C6
100
AcDbPolyline
 90
        2
 70
     0
 43
0.0
 10
388.0
 20
42.94131111517844
 10
277.9999999999999
 20
42.94131111517844
  0
TEXT
  5
3AEC
330
3ADE
100
AcDbEntity
  8
C6
100
AcDbText
 10
288.2080275624462
 20
1.0
 30
0.0
 40
4.0
  1
因幡電機産業株式会社　　因幡電工事業部
  7
KANJI
100
AcDbText
  0
TRACE
  5
3AED
330
3ADE
100
AcDbEntity
  8
C6
 48
2.0
100
AcDbTrace
 10
330.1
 20
32.90906427394034
 30
0.0
 11
329.9
 21
32.90906427394034
 31
0.0
 12
330.1
 22
8.0
 32
0.0
 13
329.9
 23
8.0
 33
0.0
  0
TRACE
  5
3AEE
330
3ADE
100
AcDbEntity
  8
C6
 48
2.0
100
AcDbTrace
 10
338.1
 20
32.90906427394034
 30
0.0
 11
337.9
 21
32.90906427394034
 31
0.0
 12
338.1
 22
8.0
 32
0.0
 13
337.9
 23
8.0
 33
0.0
  0
LINE
  5
3AEF
330
3ADE
100
AcDbEntity
  8
C6
100
AcDbLine
 10
330.0
 20
8.0
 30
0.0
 11
330.0
 21
33.00906427394034
 31
0.0
  0
LINE
  5
3AF0
330
3ADE
100
AcDbEntity
  8
C6
100
AcDbLine
 10
338.0
 20
8.0
 30
0.0
 11
338.0
 21
33.00906427394034
 31
0.0
  0
LINE
  5
3AF1
330
3ADE
100
AcDbEntity
  8
C6
100
AcDbLine
 10
338.0
 20
15.0
 30
0.0
 11
338.0
 21
8.0
 31
0.0
  0
TEXT
  5
3AF2
330
3ADE
100
AcDbEntity
  8
C6
100
AcDbText
 10
332.3666666666667
 20
8.958066288225609
 30
0.0
 40
3.5
  1
番
  7
KANJI
 72
     1
 11
334.0
 21
8.958066288225609
 31
0.0
100
AcDbText
  0
TRACE
  5
3AF3
330
3ADE
100
AcDbEntity
  8
C6
 48
2.0
100
AcDbTrace
 10
304.0999999999999
 20
32.90906427394034
 30
0.0
 11
303.8999999999999
 21
32.90906427394034
 31
0.0
 12
304.1
 22
8.100000000000008
 32
0.0
 13
303.9
 23
8.100000000000008
 33
0.0
  0
TRACE
  5
3AF4
330
3ADE
100
AcDbEntity
  8
C6
 48
2.0
100
AcDbTrace
 10
291.0999999999999
 20
52.63548800585798
 30
0.0
 11
290.9
 21
52.63548800585798
 31
0.0
 12
291.0999999999999
 22
8.0
 32
0.0
 13
290.9
 23
8.0
 33
0.0
  0
TRACE
  5
3AF5
330
3ADE
100
AcDbEntity
  8
C6
 48
2.0
100
AcDbTrace
 10
278.0999999999999
 20
52.83548800585797
 30
0.0
 11
277.9
 21
52.83548800585797
 31
0.0
 12
278.0999999999999
 22
0.0
 32
0.0
 13
277.9
 23
0.0
 33
0.0
  0
LINE
  5
3AF6
330
3ADE
100
AcDbEntity
  8
C6
100
AcDbLine
 10
277.9999999999999
 20
0.0
 30
0.0
 11
277.9999999999999
 21
52.73548800585797
 31
0.0
  0
LINE
  5
3AF7
330
3ADE
100
AcDbEntity
  8
C6
100
AcDbLine
 10
304.0
 20
8.0
 30
0.0
 11
303.9999999999999
 21
33.00906427394034
 31
0.0
  0
TRACE
  5
3AF8
330
3ADE
100
AcDbEntity
  8
C6
 48
2.0
100
AcDbTrace
 10
284.0999999999999
 20
14.9
 30
0.0
 11
283.9
 21
14.9
 31
0.0
 12
284.1
 22
8.100000000000022
 32
0.0
 13
283.9
 23
8.100000000000022
 33
0.0
  0
LINE
  5
3AF9
330
3ADE
100
AcDbEntity
  8
C6
100
AcDbLine
 10
283.9999999999999
 20
8.0
 30
0.0
 11
283.9999999999999
 21
15.0
 31
0.0
  0
TEXT
  5
3AFA
330
3ADE
100
AcDbEntity
  8
C6
100
AcDbText
 10
279.7488372093023
 20
11.73493865592149
 30
0.0
 40
3.0
  1
尺
  7
KANJI
100
AcDbText
  0
LINE
  5
3AFB
330
3ADE
100
AcDbEntity
  8
C6
100
AcDbLine
 10
291.0
 20
8.0
 30
0.0
 11
291.0
 21
15.0
 31
0.0
  0
TEXT
  5
3AFC
330
3ADE
100
AcDbEntity
  8
C6
100
AcDbText
 10
279.7488372093023
 20
8.361472257828268
 30
0.0
 40
3.0
  1
度
  7
KANJI
100
AcDbText
  0
TEXT
  5
3AFD
330
3ADE
100
AcDbEntity
  8
C6
100
AcDbText
 10
319.9289960792059
 20
30.50906427394034
 30
0.0
 40
2.0
  1
写  図
  7
KANJI
100
AcDbText
  0
TEXT
  5
3AFE
330
3ADE
100
AcDbEntity
  8
C6
100
AcDbText
 10
318.8344875107666
 20
34.00906427394034
 30
0.0
 40
3.5
  1
材　　質
  7
KANJI
100
AcDbText
  0
TRACE
  5
3AFF
330
3ADE
100
AcDbEntity
  8
C6
 48
2.0
100
AcDbTrace
 10
278.0999999999999
 20
15.09999999999999
 30
0.0
 11
278.0999999999999
 21
14.9
 31
0.0
 12
329.9
 22
15.09999999999999
 32
0.0
 13
329.9
 23
14.9
 33
0.0
  0
TRACE
  5
3B00
330
3ADE
100
AcDbEntity
  8
C6
 48
2.0
100
AcDbTrace
 10
278.0999999999999
 20
30.10906427394033
 30
0.0
 11
278.0999999999999
 21
29.90906427394035
 31
0.0
 12
330.0
 22
30.10906427394033
 32
0.0
 13
330.0
 23
29.90906427394035
 33
0.0
  0
LWPOLYLINE
  5
3B01
330
3ADE
100
AcDbEntity
  8
C6
100
AcDbPolyline
 90
        2
 70
     0
 43
0.0
 10
330.0
 20
17.905054019408
 10
277.9999999999999
 20
17.905054019408
  0
LWPOLYLINE
  5
3B02
330
3ADE
100
AcDbEntity
  8
C6
100
AcDbPolyline
 90
        2
 70
     0
 43
0.0
 10
330.0
 20
33.00906427394034
 10
277.9999999999999
 20
33.00906427394034
  0
LWPOLYLINE
  5
3B03
330
3ADE
100
AcDbEntity
  8
C6
100
AcDbPolyline
 90
        2
 70
     0
 43
0.0
 10
330.0
 20
30.00906427394034
 10
277.9999999999999
 20
30.00906427394034
  0
LWPOLYLINE
  5
3B04
330
3ADE
100
AcDbEntity
  8
C6
100
AcDbPolyline
 90
        2
 70
     0
 43
0.0
 10
330.0
 20
15.0
 10
277.9999999999999
 20
15.0
  0
TRACE
  5
3B05
330
3ADE
100
AcDbEntity
  8
C6
 48
2.0
100
AcDbTrace
 10
315.1
 20
52.63548800585798
 30
0.0
 11
314.9
 21
52.63548800585798
 31
0.0
 12
315.1
 22
33.10906427394034
 32
0.0
 13
314.9
 23
33.10906427394034
 33
0.0
  0
LINE
  5
3B06
330
3ADE
100
AcDbEntity
  8
C6
100
AcDbLine
 10
315.0
 20
33.00906427394034
 30
0.0
 11
315.0
 21
52.73548800585797
 31
0.0
  0
LINE
  5
3B07
330
3ADE
100
AcDbEntity
  8
C6
100
AcDbLine
 10
291.0
 20
33.00906427394034
 30
0.0
 11
291.0
 21
52.73548800585797
 31
0.0
  0
TEXT
  5
3B08
330
3ADE
100
AcDbEntity
  8
C6
100
AcDbText
 10
294.2085465059463
 20
30.50906427394034
 30
0.0
 40
2.0
  1
製  図
  7
KANJI
100
AcDbText
  0
TEXT
  5
3B09
330
3ADE
100
AcDbEntity
  8
C6
100
AcDbText
 10
294.8344875107665
 20
34.00906427394034
 30
0.0
 40
3.5
  1
品　　名
  7
KANJI
100
AcDbText
  0
LINE
  5
3B0A
330
3ADE
100
AcDbEntity
  8
C6
100
AcDbLine
 10
291.0
 20
15.0
 30
0.0
 11
291.0
 21
33.00906427394034
 31
0.0
  0
TEXT
  5
3B0B
330
3ADE
100
AcDbEntity
  8
C6
100
AcDbText
 10
279.8107897858412
 20
30.50906427394034
 30
0.0
 40
2.0
  1
 設  計
  7
KANJI
100
AcDbText
  0
TRACE
  5
3B0C
330
3ADE
100
AcDbEntity
  8
C6
 48
2.0
100
AcDbTrace
 10
317.1
 20
32.90906427394034
 30
0.0
 11
316.9
 21
32.90906427394034
 31
0.0
 12
317.1
 22
15.09999999999999
 32
0.0
 13
316.9
 23
15.09999999999999
 33
0.0
  0
LINE
  5
3B0D
330
3ADE
100
AcDbEntity
  8
C6
100
AcDbLine
 10
317.0
 20
15.0
 30
0.0
 11
317.0
 21
33.00906427394034
 31
0.0
  0
TEXT
  5
3B0E
330
3ADE
100
AcDbEntity
  8
C6
100
AcDbText
 10
307.2085480347472
 20
30.50906427394034
 30
0.0
 40
2.0
  1
検  図
  7
KANJI
100
AcDbText
  0
TRACE
  5
3B0F
330
3ADE
100
AcDbEntity
  8
C6
 48
2.0
100
AcDbTrace
 10
363.1
 20
52.63548800585798
 30
0.0
 11
362.9
 21
52.63548800585798
 31
0.0
 12
363.1
 22
33.10906427394034
 32
0.0
 13
362.9
 23
33.10906427394034
 33
0.0
  0
LINE
  5
3B10
330
3ADE
100
AcDbEntity
  8
C6
100
AcDbLine
 10
363.0
 20
33.00906427394034
 30
0.0
 11
363.0
 21
52.73548800585797
 31
0.0
  0
TRACE
  5
3B11
330
3ADE
100
AcDbEntity
  8
C6
 48
2.0
100
AcDbTrace
 10
339.1
 20
52.63548800585798
 30
0.0
 11
338.9
 21
52.63548800585798
 31
0.0
 12
339.1
 22
33.10906427394034
 32
0.0
 13
338.9
 23
33.10906427394034
 33
0.0
  0
LINE
  5
3B12
330
3ADE
100
AcDbEntity
  8
C6
100
AcDbLine
 10
339.0
 20
33.00906427394034
 30
0.0
 11
339.0
 21
52.73548800585797
 31
0.0
  0
LINE
  5
3B13
330
3ADE
100
AcDbEntity
  8
C6
100
AcDbLine
 10
338.0
 20
33.00906427394034
 30
0.0
 11
338.0
 21
15.0
 31
0.0
  0
TEXT
  5
3B14
330
3ADE
100
AcDbEntity
  8
C6
100
AcDbText
 10
332.4833333333334
 20
26.36365439785033
 30
0.0
 40
3.5
  1
名
  7
KANJI
 72
     1
 11
334.0
 21
26.36365439785033
 31
0.0
100
AcDbText
  0
TEXT
  5
3B15
330
3ADE
100
AcDbEntity
  8
C6
100
AcDbText
 10
332.3666666666667
 20
19.82715314655326
 30
0.0
 40
3.5
  1
称
  7
KANJI
 72
     1
 11
334.0
 21
23.32715314655326
 31
0.0
100
AcDbText
 73
     3
  0
TEXT
  5
3B16
330
3ADE
100
AcDbEntity
  8
C6
100
AcDbText
 10
332.3666666666667
 20
13.17631080998598
 30
0.0
 40
3.5
  1
図
  7
KANJI
 72
     1
 11
334.0
 21
13.17631080998598
 31
0.0
100
AcDbText
  0
TEXT
  5
3B17
330
3ADE
100
AcDbEntity
  8
C6
100
AcDbText
 10
342.8344875107666
 20
34.00906427394034
 30
0.0
 40
3.5
  1
色　　調
  7
KANJI
100
AcDbText
  0
TEXT
  5
3B18
330
3ADE
100
AcDbEntity
  8
C6
100
AcDbText
 10
366.8344875107666
 20
34.00906427394034
 30
0.0
 40
3.5
  1
備　　考
  7
KANJI
100
AcDbText
  0
ENDBLK
  5
3B1A
330
3ADE
100
AcDbEntity
  8
0
 48
2.0
100
AcDbBlockEnd
  0
BLOCK
  5
3C59
330
3C55
100
AcDbEntity
  8
0
100
AcDbBlockBegin
  2
YAZ1
 70
     0
 10
184.0
 20
133.0
 30
0.0
  3
YAZ1
  1

  0
LINE
  5
3C56
330
3C55
100
AcDbEntity
  8
0
100
AcDbLine
 10
184.0
 20
133.0
 30
0.0
 11
183.0
 21
132.7320508075689
 31
0.0
  0
LINE
  5
3C57
330
3C55
100
AcDbEntity
  8
0
100
AcDbLine
 10
184.0
 20
133.0
 30
0.0
 11
183.0
 21
133.2679491924311
 31
0.0
  0
LINE
  5
3C58
330
3C55
100
AcDbEntity
  8
0
100
AcDbLine
 10
183.0
 20
133.0
 30
0.0
 11
184.0
 21
133.0
 31
0.0
  0
ENDBLK
  5
3C5A
330
3C55
100
AcDbEntity
  8
0
100
AcDbBlockEnd
  0
BLOCK
  5
3C5E
330
3C5B
100
AcDbEntity
  8
0
100
AcDbBlockBegin
  2
YAZ3
 70
     0
 10
184.0
 20
133.0
 30
0.0
  3
YAZ3
  1

  0
SOLID
  5
3C5C
330
3C5B
100
AcDbEntity
  8
0
100
AcDbTrace
 10
184.0
 20
133.0
 30
0.0
 11
183.0
 21
133.2679491924311
 31
0.0
 12
183.0
 22
132.7320508075689
 32
0.0
 13
183.0
 23
132.7320508075689
 33
0.0
  0
INSERT
  5
3C5D
330
3C5B
100
AcDbEntity
  8
0
100
AcDbBlockReference
  2
YAZ1
 10
184.0
 20
133.0
 30
0.0
  0
ENDBLK
  5
3C5F
330
3C5B
100
AcDbEntity
  8
0
100
AcDbBlockEnd
  0
BLOCK
  5
3C6A
330
3C60
100
AcDbEntity
  8
SCALE
100
AcDbBlockBegin
  2
*D6
 70
     1
 10
0.0
 20
0.0
 30
0.0
  3
*D6
  1

  0
LINE
  5
3C61
330
3C60
100
AcDbEntity
  8
0
  6
ByBlock
 62
     0
100
AcDbLine
 10
72.43633997332716
 20
231.9139570998738
 30
0.0
 11
60.67123911233342
 21
231.9139570998738
 31
0.0
  0
LINE
  5
3C62
330
3C60
100
AcDbEntity
  8
0
  6
ByBlock
 62
     0
100
AcDbLine
 10
72.43633997332716
 20
190.9139570998738
 30
0.0
 11
60.67123911233342
 21
190.9139570998738
 31
0.0
  0
LINE
  5
3C63
330
3C60
100
AcDbEntity
  8
0
  6
ByBlock
 62
     0
100
AcDbLine
 10
62.42123911233342
 20
230.4139570998738
 30
0.0
 11
62.42123911233342
 21
192.4139570998738
 31
0.0
  0
INSERT
  5
3C64
330
3C60
100
AcDbEntity
  8
0
  6
ByBlock
 62
     0
100
AcDbBlockReference
  2
YAZ3
 10
62.42123911233342
 20
231.9139570998738
 30
0.0
 41
1.5
 42
1.5
 43
1.5
 50
90.0
  0
INSERT
  5
3C65
330
3C60
100
AcDbEntity
  8
0
  6
ByBlock
 62
     0
100
AcDbBlockReference
  2
YAZ3
 10
62.42123911233342
 20
190.9139570998738
 30
0.0
 41
1.5
 42
1.5
 43
1.5
 50
270.0
  0
TEXT
  5
3C66
330
3C60
100
AcDbEntity
  8
0
  6
ByBlock
 62
     0
100
AcDbText
 10
61.17123911233342
 20
209.6282428141595
 30
0.0
 40
2.5
  1
41
 50
90.0
  7
CMP-SET
100
AcDbText
  0
POINT
  5
3C67
330
3C60
100
AcDbEntity
  8
DEFPOINTS
  6
ByBlock
 62
     0
100
AcDbPoint
 10
72.49883997332716
 20
231.9139570998738
 30
0.0
  0
POINT
  5
3C68
330
3C60
100
AcDbEntity
  8
DEFPOINTS
  6
ByBlock
 62
     0
100
AcDbPoint
 10
72.49883997332716
 20
190.9139570998738
 30
0.0
  0
POINT
  5
3C69
330
3C60
100
AcDbEntity
  8
DEFPOINTS
  6
ByBlock
 62
     0
100
AcDbPoint
 10
62.42123911233342
 20
190.9139570998738
 30
0.0
  0
ENDBLK
  5
3C6B
330
3C60
100
AcDbEntity
  8
SCALE
100
AcDbBlockEnd
  0
BLOCK
  5
3C76
330
3C6C
100
AcDbEntity
  8
SCALE
100
AcDbBlockBegin
  2
*D7
 70
     1
 10
0.0
 20
0.0
 30
0.0
  3
*D7
  1

  0
LINE
  5
3C6D
330
3C6C
100
AcDbEntity
  8
0
  6
ByBlock
 62
     0
100
AcDbLine
 10
72.43633997332716
 20
138.4139570998738
 30
0.0
 11
66.5948431934161
 21
138.4139570998738
 31
0.0
  0
LINE
  5
3C6E
330
3C6C
100
AcDbEntity
  8
0
  6
ByBlock
 62
     0
100
AcDbLine
 10
76.43633997332717
 20
146.4139570998738
 30
0.0
 11
66.5948431934161
 21
146.4139570998738
 31
0.0
  0
LINE
  5
3C6F
330
3C6C
100
AcDbEntity
  8
0
  6
ByBlock
 62
     0
100
AcDbLine
 10
68.34484319341609
 20
139.9139570998738
 30
0.0
 11
68.34484319341609
 21
144.9139570998738
 31
0.0
  0
INSERT
  5
3C70
330
3C6C
100
AcDbEntity
  8
0
  6
ByBlock
 62
     0
100
AcDbBlockReference
  2
YAZ3
 10
68.34484319341609
 20
138.4139570998738
 30
0.0
 41
1.5
 42
1.5
 43
1.5
 50
270.0
  0
INSERT
  5
3C71
330
3C6C
100
AcDbEntity
  8
0
  6
ByBlock
 62
     0
100
AcDbBlockReference
  2
YAZ3
 10
68.34484319341609
 20
146.4139570998738
 30
0.0
 41
1.5
 42
1.5
 43
1.5
 50
90.0
  0
TEXT
  5
3C72
330
3C6C
100
AcDbEntity
  8
0
  6
ByBlock
 62
     0
100
AcDbText
 10
67.09484319341609
 20
141.5806237665405
 30
0.0
 40
2.5
  1
8
 50
90.0
  7
CMP-SET
100
AcDbText
  0
POINT
  5
3C73
330
3C6C
100
AcDbEntity
  8
DEFPOINTS
  6
ByBlock
 62
     0
100
AcDbPoint
 10
72.49883997332716
 20
138.4139570998738
 30
0.0
  0
POINT
  5
3C74
330
3C6C
100
AcDbEntity
  8
DEFPOINTS
  6
ByBlock
 62
     0
100
AcDbPoint
 10
76.49883997332716
 20
146.4139570998738
 30
0.0
  0
POINT
  5
3C75
330
3C6C
100
AcDbEntity
  8
DEFPOINTS
  6
ByBlock
 62
     0
100
AcDbPoint
 10
68.34484319341609
 20
146.4139570998738
 30
0.0
  0
ENDBLK
  5
3C77
330
3C6C
100
AcDbEntity
  8
SCALE
100
AcDbBlockEnd
  0
BLOCK
  5
3C82
330
3C78
100
AcDbEntity
  8
SCALE
100
AcDbBlockBegin
  2
*D8
 70
     1
 10
0.0
 20
0.0
 30
0.0
  3
*D8
  1

  0
LINE
  5
3C79
330
3C78
100
AcDbEntity
  8
0
  6
ByBlock
 62
     0
100
AcDbLine
 10
68.2823431934161
 20
146.4139570998739
 30
0.0
 11
60.67123911233341
 21
146.4139570998739
 31
0.0
  0
LINE
  5
3C7A
330
3C78
100
AcDbEntity
  8
0
  6
ByBlock
 62
     0
100
AcDbLine
 10
84.68633997332718
 20
124.4139570998738
 30
0.0
 11
60.67123911233341
 21
124.4139570998738
 31
0.0
  0
LINE
  5
3C7B
330
3C78
100
AcDbEntity
  8
0
  6
ByBlock
 62
     0
100
AcDbLine
 10
62.42123911233341
 20
144.9139570998739
 30
0.0
 11
62.42123911233341
 21
125.9139570998738
 31
0.0
  0
INSERT
  5
3C7C
330
3C78
100
AcDbEntity
  8
0
  6
ByBlock
 62
     0
100
AcDbBlockReference
  2
YAZ3
 10
62.42123911233341
 20
146.4139570998739
 30
0.0
 41
1.5
 42
1.5
 43
1.5
 50
90.0
  0
INSERT
  5
3C7D
330
3C78
100
AcDbEntity
  8
0
  6
ByBlock
 62
     0
100
AcDbBlockReference
  2
YAZ3
 10
62.42123911233341
 20
124.4139570998738
 30
0.0
 41
1.5
 42
1.5
 43
1.5
 50
270.0
  0
TEXT
  5
3C7E
330
3C78
100
AcDbEntity
  8
0
  6
ByBlock
 62
     0
100
AcDbText
 10
61.17123911233341
 20
131.7830047189215
 30
0.0
 40
2.5
  1
(22)
 50
90.0
  7
CMP-SET
100
AcDbText
  0
POINT
  5
3C7F
330
3C78
100
AcDbEntity
  8
DEFPOINTS
  6
ByBlock
 62
     0
100
AcDbPoint
 10
68.34484319341609
 20
146.4139570998739
 30
0.0
  0
POINT
  5
3C80
330
3C78
100
AcDbEntity
  8
DEFPOINTS
  6
ByBlock
 62
     0
100
AcDbPoint
 10
84.74883997332717
 20
124.4139570998738
 30
0.0
  0
POINT
  5
3C81
330
3C78
100
AcDbEntity
  8
DEFPOINTS
  6
ByBlock
 62
     0
100
AcDbPoint
 10
62.42123911233341
 20
124.4139570998738
 30
0.0
  0
ENDBLK
  5
3C83
330
3C78
100
AcDbEntity
  8
SCALE
100
AcDbBlockEnd
  0
BLOCK
  5
3C90
330
3C84
100
AcDbEntity
  8
SCALE
100
AcDbBlockBegin
  2
*D9
 70
     1
 10
0.0
 20
0.0
 30
0.0
  3
*D9
  1

  0
LINE
  5
3C85
330
3C84
100
AcDbEntity
  8
0
  6
ByBlock
 62
     0
100
AcDbLine
 10
84.74883997332717
 20
124.3514570998738
 30
0.0
 11
84.74883997332717
 21
117.4766330195089
 31
0.0
  0
LINE
  5
3C86
330
3C84
100
AcDbEntity
  8
0
  6
ByBlock
 62
     0
100
AcDbLine
 10
90.74883997332717
 20
124.3514570998738
 30
0.0
 11
90.74883997332717
 21
117.4766330195089
 31
0.0
  0
LINE
  5
3C87
330
3C84
100
AcDbEntity
  8
0
  6
ByBlock
 62
     0
100
AcDbLine
 10
92.24883997332716
 20
119.2266330195089
 30
0.0
 11
93.74883997332716
 21
119.2266330195089
 31
0.0
  0
LINE
  5
3C88
330
3C84
100
AcDbEntity
  8
0
  6
ByBlock
 62
     0
100
AcDbLine
 10
83.24883997332717
 20
119.2266330195089
 30
0.0
 11
81.74883997332718
 21
119.2266330195089
 31
0.0
  0
INSERT
  5
3C89
330
3C84
100
AcDbEntity
  8
0
  6
ByBlock
 62
     0
100
AcDbBlockReference
  2
YAZ3
 10
90.74883997332717
 20
119.2266330195089
 30
0.0
 41
1.5
 42
1.5
 43
1.5
 50
180.0
  0
INSERT
  5
3C8A
330
3C84
100
AcDbEntity
  8
0
  6
ByBlock
 62
     0
100
AcDbBlockReference
  2
YAZ3
 10
84.74883997332717
 20
119.2266330195089
 30
0.0
 41
1.5
 42
1.5
 43
1.5
  0
LINE
  5
3C8B
330
3C84
100
AcDbEntity
  8
0
  6
ByBlock
 62
     0
100
AcDbLine
 10
90.74883997332717
 20
119.2266330195089
 30
0.0
 11
84.74883997332717
 21
119.2266330195089
 31
0.0
  0
TEXT
  5
3C8C
330
3C84
100
AcDbEntity
  8
0
  6
ByBlock
 62
     0
100
AcDbText
 10
86.91550663999384
 20
120.4766330195089
 30
0.0
 40
2.5
  1
6
  7
CMP-SET
100
AcDbText
  0
POINT
  5
3C8D
330
3C84
100
AcDbEntity
  8
DEFPOINTS
  6
ByBlock
 62
     0
100
AcDbPoint
 10
84.74883997332717
 20
124.4139570998738
 30
0.0
  0
POINT
  5
3C8E
330
3C84
100
AcDbEntity
  8
DEFPOINTS
  6
ByBlock
 62
     0
100
AcDbPoint
 10
90.74883997332717
 20
124.4139570998738
 30
0.0
  0
POINT
  5
3C8F
330
3C84
100
AcDbEntity
  8
DEFPOINTS
  6
ByBlock
 62
     0
100
AcDbPoint
 10
90.74883997332717
 20
119.2266330195089
 30
0.0
  0
ENDBLK
  5
3C91
330
3C84
100
AcDbEntity
  8
SCALE
100
AcDbBlockEnd
  0
BLOCK
  5
3C9E
330
3C92
100
AcDbEntity
  8
SCALE
100
AcDbBlockBegin
  2
*D10
 70
     1
 10
0.0
 20
0.0
 30
0.0
  3
*D10
  1

  0
LINE
  5
3C93
330
3C92
100
AcDbEntity
  8
0
  6
ByBlock
 62
     0
100
AcDbLine
 10
104.7488399733272
 20
124.3514570998738
 30
0.0
 11
104.7488399733272
 21
117.4766330195089
 31
0.0
  0
LINE
  5
3C94
330
3C92
100
AcDbEntity
  8
0
  6
ByBlock
 62
     0
100
AcDbLine
 10
98.7488399733272
 20
124.3514570998738
 30
0.0
 11
98.7488399733272
 21
117.4766330195089
 31
0.0
  0
LINE
  5
3C95
330
3C92
100
AcDbEntity
  8
0
  6
ByBlock
 62
     0
100
AcDbLine
 10
97.24883997332719
 20
119.2266330195089
 30
0.0
 11
95.74883997332719
 21
119.2266330195089
 31
0.0
  0
LINE
  5
3C96
330
3C92
100
AcDbEntity
  8
0
  6
ByBlock
 62
     0
100
AcDbLine
 10
106.2488399733272
 20
119.2266330195089
 30
0.0
 11
107.7488399733272
 21
119.2266330195089
 31
0.0
  0
INSERT
  5
3C97
330
3C92
100
AcDbEntity
  8
0
  6
ByBlock
 62
     0
100
AcDbBlockReference
  2
YAZ3
 10
98.7488399733272
 20
119.2266330195089
 30
0.0
 41
1.5
 42
1.5
 43
1.5
  0
INSERT
  5
3C98
330
3C92
100
AcDbEntity
  8
0
  6
ByBlock
 62
     0
100
AcDbBlockReference
  2
YAZ3
 10
104.7488399733272
 20
119.2266330195089
 30
0.0
 41
1.5
 42
1.5
 43
1.5
 50
180.0
  0
LINE
  5
3C99
330
3C92
100
AcDbEntity
  8
0
  6
ByBlock
 62
     0
100
AcDbLine
 10
98.7488399733272
 20
119.2266330195089
 30
0.0
 11
104.7488399733272
 21
119.2266330195089
 31
0.0
  0
TEXT
  5
3C9A
330
3C92
100
AcDbEntity
  8
0
  6
ByBlock
 62
     0
100
AcDbText
 10
100.9155066399938
 20
120.4766330195089
 30
0.0
 40
2.5
  1
6
 50
360.0
  7
CMP-SET
100
AcDbText
  0
POINT
  5
3C9B
330
3C92
100
AcDbEntity
  8
DEFPOINTS
  6
ByBlock
 62
     0
100
AcDbPoint
 10
104.7488399733272
 20
124.4139570998738
 30
0.0
  0
POINT
  5
3C9C
330
3C92
100
AcDbEntity
  8
DEFPOINTS
  6
ByBlock
 62
     0
100
AcDbPoint
 10
98.7488399733272
 20
124.4139570998738
 30
0.0
  0
POINT
  5
3C9D
330
3C92
100
AcDbEntity
  8
DEFPOINTS
  6
ByBlock
 62
     0
100
AcDbPoint
 10
98.7488399733272
 20
119.2266330195089
 30
0.0
  0
ENDBLK
  5
3C9F
330
3C92
100
AcDbEntity
  8
SCALE
100
AcDbBlockEnd
  0
BLOCK
  5
3CAA
330
3CA0
100
AcDbEntity
  8
SCALE
100
AcDbBlockBegin
  2
*D11
 70
     1
 10
0.0
 20
0.0
 30
0.0
  3
*D11
  1

  0
LINE
  5
3CA1
330
3CA0
100
AcDbEntity
  8
0
  6
ByBlock
 62
     0
100
AcDbLine
 10
74.49883997332716
 20
138.3514570998738
 30
0.0
 11
74.49883997332716
 21
102.9480491119091
 31
0.0
  0
LINE
  5
3CA2
330
3CA0
100
AcDbEntity
  8
0
  6
ByBlock
 62
     0
100
AcDbLine
 10
114.9988399733272
 20
138.3514570998738
 30
0.0
 11
114.9988399733272
 21
102.9480491119091
 31
0.0
  0
LINE
  5
3CA3
330
3CA0
100
AcDbEntity
  8
0
  6
ByBlock
 62
     0
100
AcDbLine
 10
75.99883997332717
 20
104.6980491119091
 30
0.0
 11
113.4988399733272
 21
104.6980491119091
 31
0.0
  0
INSERT
  5
3CA4
330
3CA0
100
AcDbEntity
  8
0
  6
ByBlock
 62
     0
100
AcDbBlockReference
  2
YAZ3
 10
74.49883997332716
 20
104.6980491119091
 30
0.0
 41
1.5
 42
1.5
 43
1.5
 50
180.0
  0
INSERT
  5
3CA5
330
3CA0
100
AcDbEntity
  8
0
  6
ByBlock
 62
     0
100
AcDbBlockReference
  2
YAZ3
 10
114.9988399733272
 20
104.6980491119091
 30
0.0
 41
1.5
 42
1.5
 43
1.5
  0
TEXT
  5
3CA6
330
3CA0
100
AcDbEntity
  8
0
  6
ByBlock
 62
     0
100
AcDbText
 10
90.82026854475573
 20
105.9480491119091
 30
0.0
 40
2.5
  1
40.5
  7
CMP-SET
100
AcDbText
  0
POINT
  5
3CA7
330
3CA0
100
AcDbEntity
  8
DEFPOINTS
  6
ByBlock
 62
     0
100
AcDbPoint
 10
74.49883997332716
 20
138.4139570998738
 30
0.0
  0
POINT
  5
3CA8
330
3CA0
100
AcDbEntity
  8
DEFPOINTS
  6
ByBlock
 62
     0
100
AcDbPoint
 10
114.9988399733272
 20
138.4139570998738
 30
0.0
  0
POINT
  5
3CA9
330
3CA0
100
AcDbEntity
  8
DEFPOINTS
  6
ByBlock
 62
     0
100
AcDbPoint
 10
114.9988399733272
 20
104.6980491119091
 30
0.0
  0
ENDBLK
  5
3CAB
330
3CA0
100
AcDbEntity
  8
SCALE
100
AcDbBlockEnd
  0
BLOCK
  5
3CB9
330
3CAC
100
AcDbEntity
  8
SCALE
100
AcDbBlockBegin
  2
*D12
 70
     1
 10
0.0
 20
0.0
 30
0.0
  3
*D12
  1

  0
LINE
  5
3CAD
330
3CAC
100
AcDbEntity
  8
0
  6
ByBlock
 62
     0
100
AcDbLine
 10
114.9988399733272
 20
104.6355491119091
 30
0.0
 11
114.9988399733272
 21
102.9480491119091
 31
0.0
  0
LINE
  5
3CAE
330
3CAC
100
AcDbEntity
  8
0
  6
ByBlock
 62
     0
100
AcDbLine
 10
116.9988399733272
 20
138.3514570998738
 30
0.0
 11
116.9988399733272
 21
102.9480491119091
 31
0.0
  0
LINE
  5
3CAF
330
3CAC
100
AcDbEntity
  8
0
  6
ByBlock
 62
     0
100
AcDbLine
 10
118.4988399733271
 20
104.6980491119091
 30
0.0
 11
119.9988399733272
 21
104.6980491119091
 31
0.0
  0
LINE
  5
3CB0
330
3CAC
100
AcDbEntity
  8
0
  6
ByBlock
 62
     0
100
AcDbLine
 10
113.4988399733272
 20
104.6980491119091
 30
0.0
 11
111.9988399733272
 21
104.6980491119091
 31
0.0
  0
LINE
  5
3CB1
330
3CAC
100
AcDbEntity
  8
0
  6
ByBlock
 62
     0
100
AcDbLine
 10
119.9988399733272
 20
104.6980491119091
 30
0.0
 11
126.85598283047
 21
104.6980491119091
 31
0.0
  0
INSERT
  5
3CB2
330
3CAC
100
AcDbEntity
  8
0
  6
ByBlock
 62
     0
100
AcDbBlockReference
  2
YAZ3
 10
116.9988399733272
 20
104.6980491119091
 30
0.0
 41
1.5
 42
1.5
 43
1.5
 50
180.0
  0
INSERT
  5
3CB3
330
3CAC
100
AcDbEntity
  8
0
  6
ByBlock
 62
     0
100
AcDbBlockReference
  2
YAZ3
 10
114.9988399733272
 20
104.6980491119091
 30
0.0
 41
1.5
 42
1.5
 43
1.5
  0
LINE
  5
3CB4
330
3CAC
100
AcDbEntity
  8
0
  6
ByBlock
 62
     0
100
AcDbLine
 10
116.9988399733272
 20
104.6980491119091
 30
0.0
 11
114.9988399733272
 21
104.6980491119091
 31
0.0
  0
TEXT
  5
3CB5
330
3CAC
100
AcDbEntity
  8
0
  6
ByBlock
 62
     0
100
AcDbText
 10
121.4988399733271
 20
105.9480491119091
 30
0.0
 40
2.5
  1
2.0
  7
CMP-SET
100
AcDbText
  0
POINT
  5
3CB6
330
3CAC
100
AcDbEntity
  8
DEFPOINTS
  6
ByBlock
 62
     0
100
AcDbPoint
 10
114.9988399733272
 20
104.6980491119091
 30
0.0
  0
POINT
  5
3CB7
330
3CAC
100
AcDbEntity
  8
DEFPOINTS
  6
ByBlock
 62
     0
100
AcDbPoint
 10
116.9988399733272
 20
138.4139570998738
 30
0.0
  0
POINT
  5
3CB8
330
3CAC
100
AcDbEntity
  8
DEFPOINTS
  6
ByBlock
 62
     0
100
AcDbPoint
 10
116.9988399733272
 20
104.6980491119091
 30
0.0
  0
ENDBLK
  5
3CBA
330
3CAC
100
AcDbEntity
  8
SCALE
100
AcDbBlockEnd
  0
BLOCK
  5
3CC7
330
3CBB
100
AcDbEntity
  8
SCALE
100
AcDbBlockBegin
  2
*D13
 70
     1
 10
0.0
 20
0.0
 30
0.0
  3
*D13
  1

  0
LINE
  5
3CBC
330
3CBB
100
AcDbEntity
  8
0
  6
ByBlock
 62
     0
100
AcDbLine
 10
72.49883997332716
 20
190.8514570998738
 30
0.0
 11
72.49883997332716
 21
181.0968407260021
 31
0.0
  0
LINE
  5
3CBD
330
3CBB
100
AcDbEntity
  8
0
  6
ByBlock
 62
     0
100
AcDbLine
 10
77.99883997332715
 20
190.8514570998738
 30
0.0
 11
77.99883997332715
 21
181.0968407260021
 31
0.0
  0
LINE
  5
3CBE
330
3CBB
100
AcDbEntity
  8
0
  6
ByBlock
 62
     0
100
AcDbLine
 10
79.49883997332715
 20
182.8468407260021
 30
0.0
 11
80.99883997332716
 21
182.8468407260021
 31
0.0
  0
LINE
  5
3CBF
330
3CBB
100
AcDbEntity
  8
0
  6
ByBlock
 62
     0
100
AcDbLine
 10
70.99883997332717
 20
182.8468407260021
 30
0.0
 11
69.49883997332716
 21
182.8468407260021
 31
0.0
  0
INSERT
  5
3CC0
330
3CBB
100
AcDbEntity
  8
0
  6
ByBlock
 62
     0
100
AcDbBlockReference
  2
YAZ3
 10
77.99883997332715
 20
182.8468407260021
 30
0.0
 41
1.5
 42
1.5
 43
1.5
 50
180.0
  0
INSERT
  5
3CC1
330
3CBB
100
AcDbEntity
  8
0
  6
ByBlock
 62
     0
100
AcDbBlockReference
  2
YAZ3
 10
72.49883997332716
 20
182.8468407260021
 30
0.0
 41
1.5
 42
1.5
 43
1.5
  0
LINE
  5
3CC2
330
3CBB
100
AcDbEntity
  8
0
  6
ByBlock
 62
     0
100
AcDbLine
 10
77.99883997332715
 20
182.8468407260021
 30
0.0
 11
72.49883997332716
 21
182.8468407260021
 31
0.0
  0
TEXT
  5
3CC3
330
3CBB
100
AcDbEntity
  8
0
  6
ByBlock
 62
     0
100
AcDbText
 10
72.57026854475573
 20
184.0968407260021
 30
0.0
 40
2.5
  1
5.5
  7
CMP-SET
100
AcDbText
  0
POINT
  5
3CC4
330
3CBB
100
AcDbEntity
  8
DEFPOINTS
  6
ByBlock
 62
     0
100
AcDbPoint
 10
72.49883997332716
 20
190.9139570998738
 30
0.0
  0
POINT
  5
3CC5
330
3CBB
100
AcDbEntity
  8
DEFPOINTS
  6
ByBlock
 62
     0
100
AcDbPoint
 10
77.99883997332715
 20
190.9139570998737
 30
0.0
  0
POINT
  5
3CC6
330
3CBB
100
AcDbEntity
  8
DEFPOINTS
  6
ByBlock
 62
     0
100
AcDbPoint
 10
77.99883997332715
 20
182.8468407260021
 30
0.0
  0
ENDBLK
  5
3CC8
330
3CBB
100
AcDbEntity
  8
SCALE
100
AcDbBlockEnd
  0
BLOCK
  5
3CD5
330
3CC9
100
AcDbEntity
  8
SCALE
100
AcDbBlockBegin
  2
*D14
 70
     1
 10
0.0
 20
0.0
 30
0.0
  3
*D14
  1

  0
LINE
  5
3CCA
330
3CC9
100
AcDbEntity
  8
0
  6
ByBlock
 62
     0
100
AcDbLine
 10
116.9988399733271
 20
190.8514570998738
 30
0.0
 11
116.9988399733271
 21
181.0968407260021
 31
0.0
  0
LINE
  5
3CCB
330
3CC9
100
AcDbEntity
  8
0
  6
ByBlock
 62
     0
100
AcDbLine
 10
111.4988399733271
 20
190.8514570998738
 30
0.0
 11
111.4988399733271
 21
181.0968407260021
 31
0.0
  0
LINE
  5
3CCC
330
3CC9
100
AcDbEntity
  8
0
  6
ByBlock
 62
     0
100
AcDbLine
 10
109.9988399733271
 20
182.8468407260021
 30
0.0
 11
108.4988399733271
 21
182.8468407260021
 31
0.0
  0
LINE
  5
3CCD
330
3CC9
100
AcDbEntity
  8
0
  6
ByBlock
 62
     0
100
AcDbLine
 10
118.4988399733271
 20
182.8468407260021
 30
0.0
 11
119.9988399733271
 21
182.8468407260021
 31
0.0
  0
INSERT
  5
3CCE
330
3CC9
100
AcDbEntity
  8
0
  6
ByBlock
 62
     0
100
AcDbBlockReference
  2
YAZ3
 10
111.4988399733271
 20
182.8468407260021
 30
0.0
 41
1.5
 42
1.5
 43
1.5
  0
INSERT
  5
3CCF
330
3CC9
100
AcDbEntity
  8
0
  6
ByBlock
 62
     0
100
AcDbBlockReference
  2
YAZ3
 10
116.9988399733271
 20
182.8468407260021
 30
0.0
 41
1.5
 42
1.5
 43
1.5
 50
180.0
  0
LINE
  5
3CD0
330
3CC9
100
AcDbEntity
  8
0
  6
ByBlock
 62
     0
100
AcDbLine
 10
111.4988399733271
 20
182.8468407260021
 30
0.0
 11
116.9988399733271
 21
182.8468407260021
 31
0.0
  0
TEXT
  5
3CD1
330
3CC9
100
AcDbEntity
  8
0
  6
ByBlock
 62
     0
100
AcDbText
 10
111.5702685447557
 20
184.0968407260021
 30
0.0
 40
2.5
  1
5.5
 50
360.0
  7
CMP-SET
100
AcDbText
  0
POINT
  5
3CD2
330
3CC9
100
AcDbEntity
  8
DEFPOINTS
  6
ByBlock
 62
     0
100
AcDbPoint
 10
116.9988399733271
 20
190.9139570998738
 30
0.0
  0
POINT
  5
3CD3
330
3CC9
100
AcDbEntity
  8
DEFPOINTS
  6
ByBlock
 62
     0
100
AcDbPoint
 10
111.4988399733271
 20
190.9139570998737
 30
0.0
  0
POINT
  5
3CD4
330
3CC9
100
AcDbEntity
  8
DEFPOINTS
  6
ByBlock
 62
     0
100
AcDbPoint
 10
111.4988399733271
 20
182.8468407260021
 30
0.0
  0
ENDBLK
  5
3CD6
330
3CC9
100
AcDbEntity
  8
SCALE
100
AcDbBlockEnd
  0
BLOCK
  5
3CE4
330
3CD7
100
AcDbEntity
  8
SCALE
100
AcDbBlockBegin
  2
*D15
 70
     1
 10
0.0
 20
0.0
 30
0.0
  3
*D15
  1

  0
LINE
  5
3CD8
330
3CD7
100
AcDbEntity
  8
0
  6
ByBlock
 62
     0
100
AcDbLine
 10
181.8113399733271
 20
216.4139570998738
 30
0.0
 11
190.2532062688083
 21
216.4139570998738
 31
0.0
  0
LINE
  5
3CD9
330
3CD7
100
AcDbEntity
  8
0
  6
ByBlock
 62
     0
100
AcDbLine
 10
179.3113399733272
 20
221.4139570998738
 30
0.0
 11
190.2532062688083
 21
221.4139570998738
 31
0.0
  0
LINE
  5
3CDA
330
3CD7
100
AcDbEntity
  8
0
  6
ByBlock
 62
     0
100
AcDbLine
 10
188.5032062688083
 20
222.9139570998738
 30
0.0
 11
188.5032062688083
 21
224.4139570998738
 31
0.0
  0
LINE
  5
3CDB
330
3CD7
100
AcDbEntity
  8
0
  6
ByBlock
 62
     0
100
AcDbLine
 10
188.5032062688083
 20
214.9139570998738
 30
0.0
 11
188.5032062688083
 21
213.4139570998738
 31
0.0
  0
LINE
  5
3CDC
330
3CD7
100
AcDbEntity
  8
0
  6
ByBlock
 62
     0
100
AcDbLine
 10
188.5032062688083
 20
224.4139570998738
 30
0.0
 11
188.5032062688083
 21
230.7949094808262
 31
0.0
  0
INSERT
  5
3CDD
330
3CD7
100
AcDbEntity
  8
0
  6
ByBlock
 62
     0
100
AcDbBlockReference
  2
YAZ3
 10
188.5032062688083
 20
221.4139570998738
 30
0.0
 41
1.5
 42
1.5
 43
1.5
 50
270.0
  0
INSERT
  5
3CDE
330
3CD7
100
AcDbEntity
  8
0
  6
ByBlock
 62
     0
100
AcDbBlockReference
  2
YAZ3
 10
188.5032062688083
 20
216.4139570998738
 30
0.0
 41
1.5
 42
1.5
 43
1.5
 50
90.0
  0
LINE
  5
3CDF
330
3CD7
100
AcDbEntity
  8
0
  6
ByBlock
 62
     0
100
AcDbLine
 10
188.5032062688083
 20
221.4139570998738
 30
0.0
 11
188.5032062688083
 21
216.4139570998738
 31
0.0
  0
TEXT
  5
3CE0
330
3CD7
100
AcDbEntity
  8
0
  6
ByBlock
 62
     0
100
AcDbText
 10
187.2532062688083
 20
225.9139570998738
 30
0.0
 40
2.5
  1
(5)
 50
90.0
  7
CMP-SET
100
AcDbText
  0
POINT
  5
3CE1
330
3CD7
100
AcDbEntity
  8
DEFPOINTS
  6
ByBlock
 62
     0
100
AcDbPoint
 10
181.7488399733271
 20
216.4139570998738
 30
0.0
  0
POINT
  5
3CE2
330
3CD7
100
AcDbEntity
  8
DEFPOINTS
  6
ByBlock
 62
     0
100
AcDbPoint
 10
179.2488399733272
 20
221.4139570998738
 30
0.0
  0
POINT
  5
3CE3
330
3CD7
100
AcDbEntity
  8
DEFPOINTS
  6
ByBlock
 62
     0
100
AcDbPoint
 10
188.5032062688083
 20
221.4139570998738
 30
0.0
  0
ENDBLK
  5
3CE5
330
3CD7
100
AcDbEntity
  8
SCALE
100
AcDbBlockEnd
  0
BLOCK
  5
3CF3
330
3CE6
100
AcDbEntity
  8
SCALE
100
AcDbBlockBegin
  2
*D16
 70
     1
 10
0.0
 20
0.0
 30
0.0
  3
*D16
  1

  0
LINE
  5
3CE7
330
3CE6
100
AcDbEntity
  8
0
  6
ByBlock
 62
     0
100
AcDbLine
 10
181.8113399733272
 20
206.4139570998739
 30
0.0
 11
190.2532062688083
 21
206.413957099874
 31
0.0
  0
LINE
  5
3CE8
330
3CE6
100
AcDbEntity
  8
0
  6
ByBlock
 62
     0
100
AcDbLine
 10
179.3113399733273
 20
201.4139570998739
 30
0.0
 11
190.2532062688084
 21
201.413957099874
 31
0.0
  0
LINE
  5
3CE9
330
3CE6
100
AcDbEntity
  8
0
  6
ByBlock
 62
     0
100
AcDbLine
 10
188.5032062688084
 20
199.9139570998739
 30
0.0
 11
188.5032062688084
 21
198.4139570998739
 31
0.0
  0
LINE
  5
3CEA
330
3CE6
100
AcDbEntity
  8
0
  6
ByBlock
 62
     0
100
AcDbLine
 10
188.5032062688083
 20
207.9139570998739
 30
0.0
 11
188.5032062688083
 21
209.413957099874
 31
0.0
  0
LINE
  5
3CEB
330
3CE6
100
AcDbEntity
  8
0
  6
ByBlock
 62
     0
100
AcDbLine
 10
188.5032062688084
 20
198.4139570998739
 30
0.0
 11
188.5032062688084
 21
192.0330047189215
 31
0.0
  0
INSERT
  5
3CEC
330
3CE6
100
AcDbEntity
  8
0
  6
ByBlock
 62
     0
100
AcDbBlockReference
  2
YAZ3
 10
188.5032062688084
 20
201.4139570998739
 30
0.0
 41
1.5
 42
1.5
 43
1.5
 50
90.00000000000042
  0
INSERT
  5
3CED
330
3CE6
100
AcDbEntity
  8
0
  6
ByBlock
 62
     0
100
AcDbBlockReference
  2
YAZ3
 10
188.5032062688083
 20
206.413957099874
 30
0.0
 41
1.5
 42
1.5
 43
1.5
 50
270.0000000000004
  0
LINE
  5
3CEE
330
3CE6
100
AcDbEntity
  8
0
  6
ByBlock
 62
     0
100
AcDbLine
 10
188.5032062688084
 20
201.4139570998739
 30
0.0
 11
188.5032062688083
 21
206.413957099874
 31
0.0
  0
TEXT
  5
3CEF
330
3CE6
100
AcDbEntity
  8
0
  6
ByBlock
 62
     0
100
AcDbText
 10
187.2532062688084
 20
192.0330047189215
 30
0.0
 40
2.5
  1
(5)
 50
90.00000000000042
  7
CMP-SET
100
AcDbText
  0
POINT
  5
3CF0
330
3CE6
100
AcDbEntity
  8
DEFPOINTS
  6
ByBlock
 62
     0
100
AcDbPoint
 10
181.7488399733272
 20
206.4139570998739
 30
0.0
  0
POINT
  5
3CF1
330
3CE6
100
AcDbEntity
  8
DEFPOINTS
  6
ByBlock
 62
     0
100
AcDbPoint
 10
179.2488399733272
 20
201.4139570998739
 30
0.0
  0
POINT
  5
3CF2
330
3CE6
100
AcDbEntity
  8
DEFPOINTS
  6
ByBlock
 62
     0
100
AcDbPoint
 10
188.5032062688084
 20
201.4139570998739
 30
0.0
  0
ENDBLK
  5
3CF4
330
3CE6
100
AcDbEntity
  8
SCALE
100
AcDbBlockEnd
  0
BLOCK
  5
3D02
330
3CF5
100
AcDbEntity
  8
SCALE
100
AcDbBlockBegin
  2
*D17
 70
     1
 10
0.0
 20
0.0
 30
0.0
  3
*D17
  1

  0
LINE
  5
3CF6
330
3CF5
100
AcDbEntity
  8
0
  6
ByBlock
 62
     0
100
AcDbLine
 10
271.580066889401
 20
201.1014570998738
 30
0.0
 11
271.580066889401
 21
191.2437882170242
 31
0.0
  0
LINE
  5
3CF7
330
3CF5
100
AcDbEntity
  8
0
  6
ByBlock
 62
     0
100
AcDbLine
 10
275.080066889401
 20
201.1014570998738
 30
0.0
 11
275.080066889401
 21
191.2437882170242
 31
0.0
  0
LINE
  5
3CF8
330
3CF5
100
AcDbEntity
  8
0
  6
ByBlock
 62
     0
100
AcDbLine
 10
276.580066889401
 20
192.9937882170242
 30
0.0
 11
278.080066889401
 21
192.9937882170242
 31
0.0
  0
LINE
  5
3CF9
330
3CF5
100
AcDbEntity
  8
0
  6
ByBlock
 62
     0
100
AcDbLine
 10
270.080066889401
 20
192.9937882170242
 30
0.0
 11
268.580066889401
 21
192.9937882170242
 31
0.0
  0
LINE
  5
3CFA
330
3CF5
100
AcDbEntity
  8
0
  6
ByBlock
 62
     0
100
AcDbLine
 10
278.080066889401
 20
192.9937882170242
 30
0.0
 11
284.8181621274962
 21
192.9937882170242
 31
0.0
  0
INSERT
  5
3CFB
330
3CF5
100
AcDbEntity
  8
0
  6
ByBlock
 62
     0
100
AcDbBlockReference
  2
YAZ3
 10
275.080066889401
 20
192.9937882170242
 30
0.0
 41
1.5
 42
1.5
 43
1.5
 50
180.0
  0
INSERT
  5
3CFC
330
3CF5
100
AcDbEntity
  8
0
  6
ByBlock
 62
     0
100
AcDbBlockReference
  2
YAZ3
 10
271.580066889401
 20
192.9937882170242
 30
0.0
 41
1.5
 42
1.5
 43
1.5
  0
LINE
  5
3CFD
330
3CF5
100
AcDbEntity
  8
0
  6
ByBlock
 62
     0
100
AcDbLine
 10
275.080066889401
 20
192.9937882170242
 30
0.0
 11
271.580066889401
 21
192.9937882170242
 31
0.0
  0
TEXT
  5
3CFE
330
3CF5
100
AcDbEntity
  8
0
  6
ByBlock
 62
     0
100
AcDbText
 10
279.580066889401
 20
194.2437882170242
 30
0.0
 40
2.5
  1
3.5
  7
CMP-SET
100
AcDbText
  0
POINT
  5
3CFF
330
3CF5
100
AcDbEntity
  8
DEFPOINTS
  6
ByBlock
 62
     0
100
AcDbPoint
 10
271.580066889401
 20
201.1639570998738
 30
0.0
  0
POINT
  5
3D00
330
3CF5
100
AcDbEntity
  8
DEFPOINTS
  6
ByBlock
 62
     0
100
AcDbPoint
 10
275.080066889401
 20
201.1639570998738
 30
0.0
  0
POINT
  5
3D01
330
3CF5
100
AcDbEntity
  8
DEFPOINTS
  6
ByBlock
 62
     0
100
AcDbPoint
 10
275.080066889401
 20
192.9937882170242
 30
0.0
  0
ENDBLK
  5
3D03
330
3CF5
100
AcDbEntity
  8
SCALE
100
AcDbBlockEnd
  0
BLOCK
  5
3D11
330
3D04
100
AcDbEntity
  8
SCALE
100
AcDbBlockBegin
  2
*D18
 70
     1
 10
0.0
 20
0.0
 30
0.0
  3
*D18
  1

  0
LINE
  5
3D05
330
3D04
100
AcDbEntity
  8
0
  6
ByBlock
 62
     0
100
AcDbLine
 10
278.580066889401
 20
221.7264570998738
 30
0.0
 11
278.580066889401
 21
230.7193293215568
 31
0.0
  0
LINE
  5
3D06
330
3D04
100
AcDbEntity
  8
0
  6
ByBlock
 62
     0
100
AcDbLine
 10
275.080066889401
 20
221.7264570998738
 30
0.0
 11
275.080066889401
 21
230.7193293215568
 31
0.0
  0
LINE
  5
3D07
330
3D04
100
AcDbEntity
  8
0
  6
ByBlock
 62
     0
100
AcDbLine
 10
273.580066889401
 20
228.9693293215568
 30
0.0
 11
272.080066889401
 21
228.9693293215568
 31
0.0
  0
LINE
  5
3D08
330
3D04
100
AcDbEntity
  8
0
  6
ByBlock
 62
     0
100
AcDbLine
 10
280.080066889401
 20
228.9693293215568
 30
0.0
 11
281.580066889401
 21
228.9693293215568
 31
0.0
  0
LINE
  5
3D09
330
3D04
100
AcDbEntity
  8
0
  6
ByBlock
 62
     0
100
AcDbLine
 10
272.080066889401
 20
228.9693293215568
 30
0.0
 11
265.3419716513058
 21
228.9693293215568
 31
0.0
  0
INSERT
  5
3D0A
330
3D04
100
AcDbEntity
  8
0
  6
ByBlock
 62
     0
100
AcDbBlockReference
  2
YAZ3
 10
275.080066889401
 20
228.9693293215568
 30
0.0
 41
1.5
 42
1.5
 43
1.5
  0
INSERT
  5
3D0B
330
3D04
100
AcDbEntity
  8
0
  6
ByBlock
 62
     0
100
AcDbBlockReference
  2
YAZ3
 10
278.580066889401
 20
228.9693293215568
 30
0.0
 41
1.5
 42
1.5
 43
1.5
 50
180.0
  0
LINE
  5
3D0C
330
3D04
100
AcDbEntity
  8
0
  6
ByBlock
 62
     0
100
AcDbLine
 10
275.080066889401
 20
228.9693293215568
 30
0.0
 11
278.580066889401
 21
228.9693293215568
 31
0.0
  0
TEXT
  5
3D0D
330
3D04
100
AcDbEntity
  8
0
  6
ByBlock
 62
     0
100
AcDbText
 10
265.3419716513058
 20
230.2193293215569
 30
0.0
 40
2.5
  1
3.5
  7
CMP-SET
100
AcDbText
  0
POINT
  5
3D0E
330
3D04
100
AcDbEntity
  8
DEFPOINTS
  6
ByBlock
 62
     0
100
AcDbPoint
 10
278.580066889401
 20
221.6639570998738
 30
0.0
  0
POINT
  5
3D0F
330
3D04
100
AcDbEntity
  8
DEFPOINTS
  6
ByBlock
 62
     0
100
AcDbPoint
 10
275.080066889401
 20
221.6639570998738
 30
0.0
  0
POINT
  5
3D10
330
3D04
100
AcDbEntity
  8
DEFPOINTS
  6
ByBlock
 62
     0
100
AcDbPoint
 10
275.080066889401
 20
228.9693293215568
 30
0.0
  0
ENDBLK
  5
3D12
330
3D04
100
AcDbEntity
  8
SCALE
100
AcDbBlockEnd
  0
BLOCK
  5
3D1F
330
3D13
100
AcDbEntity
  8
SCALE
100
AcDbBlockBegin
  2
*X19
 70
     1
 10
0.0
 20
0.0
 30
0.0
  3
*X19
  1

  0
LINE
  5
3D14
330
3D13
100
AcDbEntity
  8
0
 62
     0
100
AcDbLine
 10
340.0800668894009
 20
202.1942445580241
 30
0.0
 11
344.0800668894012
 21
206.1942445580243
 31
0.0
  0
LINE
  5
3D15
330
3D13
100
AcDbEntity
  8
0
 62
     0
100
AcDbLine
 10
340.0800668894009
 20
203.0781280345073
 30
0.0
 11
343.6658959547675
 21
206.6639570998738
 31
0.0
  0
LINE
  5
3D16
330
3D13
100
AcDbEntity
  8
0
 62
     0
100
AcDbLine
 10
340.0800668894009
 20
203.9620115109905
 30
0.0
 11
342.7820124782842
 21
206.6639570998738
 31
0.0
  0
LINE
  5
3D17
330
3D13
100
AcDbEntity
  8
0
 62
     0
100
AcDbLine
 10
340.0800668894009
 20
204.8458949874737
 30
0.0
 11
341.898129001801
 21
206.6639570998738
 31
0.0
  0
LINE
  5
3D18
330
3D13
100
AcDbEntity
  8
0
 62
     0
100
AcDbLine
 10
340.0800668894009
 20
205.7297784639569
 30
0.0
 11
341.0142455253179
 21
206.6639570998738
 31
0.0
  0
LINE
  5
3D19
330
3D13
100
AcDbEntity
  8
0
 62
     0
100
AcDbLine
 10
340.0800668894009
 20
206.61366194044
 30
0.0
 11
340.1303620488347
 21
206.6639570998738
 31
0.0
  0
LINE
  5
3D1A
330
3D13
100
AcDbEntity
  8
0
 62
     0
100
AcDbLine
 10
340.0800668894009
 20
201.3103610815409
 30
0.0
 11
344.0800668894012
 21
205.3103610815412
 31
0.0
  0
LINE
  5
3D1B
330
3D13
100
AcDbEntity
  8
0
 62
     0
100
AcDbLine
 10
340.8175463842169
 20
201.1639570998738
 30
0.0
 11
344.0800668894012
 21
204.426477605058
 31
0.0
  0
LINE
  5
3D1C
330
3D13
100
AcDbEntity
  8
0
 62
     0
100
AcDbLine
 10
341.7014298607002
 20
201.1639570998738
 30
0.0
 11
344.0800668894012
 21
203.5425941285748
 31
0.0
  0
LINE
  5
3D1D
330
3D13
100
AcDbEntity
  8
0
 62
     0
100
AcDbLine
 10
342.5853133371833
 20
201.1639570998738
 30
0.0
 11
344.0800668894012
 21
202.6587106520916
 31
0.0
  0
LINE
  5
3D1E
330
3D13
100
AcDbEntity
  8
0
 62
     0
100
AcDbLine
 10
343.4691968136665
 20
201.1639570998738
 30
0.0
 11
344.0800668894012
 21
201.7748271756084
 31
0.0
  0
ENDBLK
  5
3D20
330
3D13
100
AcDbEntity
  8
SCALE
100
AcDbBlockEnd
  0
BLOCK
  5
3D2B
330
3D21
100
AcDbEntity
  8
SCALE
100
AcDbBlockBegin
  2
*D20
 70
     1
 10
0.0
 20
0.0
 30
0.0
  3
*D20
  1

  0
LINE
  5
3D22
330
3D21
100
AcDbEntity
  8
0
  6
ByBlock
 62
     0
100
AcDbLine
 10
258.080066889401
 20
145.7741068306834
 30
0.0
 11
258.080066889401
 21
130.8665679899058
 31
0.0
  0
LINE
  5
3D23
330
3D21
100
AcDbEntity
  8
0
  6
ByBlock
 62
     0
100
AcDbLine
 10
292.0800668894011
 20
145.7741068306833
 30
0.0
 11
292.0800668894011
 21
130.8665679899058
 31
0.0
  0
LINE
  5
3D24
330
3D21
100
AcDbEntity
  8
0
  6
ByBlock
 62
     0
100
AcDbLine
 10
259.580066889401
 20
132.6165679899058
 30
0.0
 11
290.5800668894011
 21
132.6165679899058
 31
0.0
  0
INSERT
  5
3D25
330
3D21
100
AcDbEntity
  8
0
  6
ByBlock
 62
     0
100
AcDbBlockReference
  2
YAZ3
 10
258.080066889401
 20
132.6165679899058
 30
0.0
 41
1.5
 42
1.5
 43
1.5
 50
180.0
  0
INSERT
  5
3D26
330
3D21
100
AcDbEntity
  8
0
  6
ByBlock
 62
     0
100
AcDbBlockReference
  2
YAZ3
 10
292.0800668894011
 20
132.6165679899058
 30
0.0
 41
1.5
 42
1.5
 43
1.5
  0
TEXT
  5
3D27
330
3D21
100
AcDbEntity
  8
0
  6
ByBlock
 62
     0
100
AcDbText
 10
272.9967335560677
 20
133.8665679899058
 30
0.0
 40
2.5
  1
34
  7
CMP-SET
100
AcDbText
  0
POINT
  5
3D28
330
3D21
100
AcDbEntity
  8
DEFPOINTS
  6
ByBlock
 62
     0
100
AcDbPoint
 10
258.080066889401
 20
145.8366068306834
 30
0.0
  0
POINT
  5
3D29
330
3D21
100
AcDbEntity
  8
DEFPOINTS
  6
ByBlock
 62
     0
100
AcDbPoint
 10
292.0800668894011
 20
145.8366068306833
 30
0.0
  0
POINT
  5
3D2A
330
3D21
100
AcDbEntity
  8
DEFPOINTS
  6
ByBlock
 62
     0
100
AcDbPoint
 10
292.0800668894011
 20
132.6165679899058
 30
0.0
  0
ENDBLK
  5
3D2C
330
3D21
100
AcDbEntity
  8
SCALE
100
AcDbBlockEnd
  0
BLOCK
  5
3D37
330
3D2D
100
AcDbEntity
  8
SCALE
100
AcDbBlockBegin
  2
*D21
 70
     1
 10
0.0
 20
0.0
 30
0.0
  3
*D21
  1

  0
LINE
  5
3D2E
330
3D2D
100
AcDbEntity
  8
0
  6
ByBlock
 62
     0
100
AcDbLine
 10
265.080066889401
 20
146.5678744898718
 30
0.0
 11
265.080066889401
 21
156.9233475686693
 31
0.0
  0
LINE
  5
3D2F
330
3D2D
100
AcDbEntity
  8
0
  6
ByBlock
 62
     0
100
AcDbLine
 10
285.080066889401
 20
146.5678744898688
 30
0.0
 11
285.080066889401
 21
156.9233475686693
 31
0.0
  0
LINE
  5
3D30
330
3D2D
100
AcDbEntity
  8
0
  6
ByBlock
 62
     0
100
AcDbLine
 10
266.580066889401
 20
155.1733475686693
 30
0.0
 11
283.580066889401
 21
155.1733475686693
 31
0.0
  0
INSERT
  5
3D31
330
3D2D
100
AcDbEntity
  8
0
  6
ByBlock
 62
     0
100
AcDbBlockReference
  2
YAZ3
 10
265.080066889401
 20
155.1733475686693
 30
0.0
 41
1.5
 42
1.5
 43
1.5
 50
180.0
  0
INSERT
  5
3D32
330
3D2D
100
AcDbEntity
  8
0
  6
ByBlock
 62
     0
100
AcDbBlockReference
  2
YAZ3
 10
285.080066889401
 20
155.1733475686693
 30
0.0
 41
1.5
 42
1.5
 43
1.5
  0
TEXT
  5
3D33
330
3D2D
100
AcDbEntity
  8
0
  6
ByBlock
 62
     0
100
AcDbText
 10
273.0562573655915
 20
156.4233475686693
 30
0.0
 40
2.5
  1
20
  7
CMP-SET
100
AcDbText
  0
POINT
  5
3D34
330
3D2D
100
AcDbEntity
  8
DEFPOINTS
  6
ByBlock
 62
     0
100
AcDbPoint
 10
265.080066889401
 20
146.5053744898718
 30
0.0
  0
POINT
  5
3D35
330
3D2D
100
AcDbEntity
  8
DEFPOINTS
  6
ByBlock
 62
     0
100
AcDbPoint
 10
285.080066889401
 20
146.5053744898688
 30
0.0
  0
POINT
  5
3D36
330
3D2D
100
AcDbEntity
  8
DEFPOINTS
  6
ByBlock
 62
     0
100
AcDbPoint
 10
285.080066889401
 20
155.1733475686693
 30
0.0
  0
ENDBLK
  5
3D38
330
3D2D
100
AcDbEntity
  8
SCALE
100
AcDbBlockEnd
  0
BLOCK
  5
3D53
330
3D39
100
AcDbEntity
  8
SCALE
100
AcDbBlockBegin
  2
*X22
 70
     1
 10
0.0
 20
0.0
 30
0.0
  3
*X22
  1

  0
LINE
  5
3D3A
330
3D39
100
AcDbEntity
  8
0
 62
     0
100
AcDbLine
 10
159.7488399733271
 20
198.6397129385872
 30
0.0
 11
161.7488399733272
 21
200.6397129385873
 31
0.0
  0
LINE
  5
3D3B
330
3D39
100
AcDbEntity
  8
0
 62
     0
100
AcDbLine
 10
159.7488399733271
 20
199.5235964150704
 30
0.0
 11
161.7488399733272
 21
201.5235964150704
 31
0.0
  0
LINE
  5
3D3C
330
3D39
100
AcDbEntity
  8
0
 62
     0
100
AcDbLine
 10
159.7488399733271
 20
200.4074798915536
 30
0.0
 11
161.7488399733271
 21
202.4074798915536
 31
0.0
  0
LINE
  5
3D3D
330
3D39
100
AcDbEntity
  8
0
 62
     0
100
AcDbLine
 10
159.7488399733271
 20
201.2913633680368
 30
0.0
 11
161.7488399733271
 21
203.2913633680368
 31
0.0
  0
LINE
  5
3D3E
330
3D39
100
AcDbEntity
  8
0
 62
     0
100
AcDbLine
 10
159.7488399733271
 20
202.17524684452
 30
0.0
 11
161.7488399733271
 21
204.17524684452
 31
0.0
  0
LINE
  5
3D3F
330
3D39
100
AcDbEntity
  8
0
 62
     0
100
AcDbLine
 10
159.7488399733271
 20
203.0591303210032
 30
0.0
 11
161.7488399733271
 21
205.0591303210032
 31
0.0
  0
LINE
  5
3D40
330
3D39
100
AcDbEntity
  8
0
 62
     0
100
AcDbLine
 10
159.7488399733271
 20
203.9430137974863
 30
0.0
 11
161.7488399733271
 21
205.9430137974863
 31
0.0
  0
LINE
  5
3D41
330
3D39
100
AcDbEntity
  8
0
 62
     0
100
AcDbLine
 10
159.7488399733271
 20
204.8268972739695
 30
0.0
 11
161.0858997992314
 21
206.1639570998738
 31
0.0
  0
LINE
  5
3D42
330
3D39
100
AcDbEntity
  8
0
 62
     0
100
AcDbLine
 10
159.7488399733271
 20
205.7107807504527
 30
0.0
 11
160.2020163227482
 21
206.1639570998738
 31
0.0
  0
LINE
  5
3D43
330
3D39
100
AcDbEntity
  8
0
 62
     0
100
AcDbLine
 10
159.7488399733271
 20
197.755829462104
 30
0.0
 11
161.7488399733272
 21
199.7558294621041
 31
0.0
  0
LINE
  5
3D44
330
3D39
100
AcDbEntity
  8
0
 62
     0
100
AcDbLine
 10
159.7488399733271
 20
196.8719459856209
 30
0.0
 11
161.7488399733272
 21
198.8719459856209
 31
0.0
  0
LINE
  5
3D45
330
3D39
100
AcDbEntity
  8
0
 62
     0
100
AcDbLine
 10
159.7488399733271
 20
195.9880625091376
 30
0.0
 11
161.7488399733272
 21
197.9880625091377
 31
0.0
  0
LINE
  5
3D46
330
3D39
100
AcDbEntity
  8
0
 62
     0
100
AcDbLine
 10
154.7488399733272
 20
190.1041790326546
 30
0.0
 11
155.5586180405465
 21
190.9139570998738
 31
0.0
  0
LINE
  5
3D47
330
3D39
100
AcDbEntity
  8
0
 62
     0
100
AcDbLine
 10
159.7488399733271
 20
195.1041790326545
 30
0.0
 11
161.7488399733272
 21
197.1041790326546
 31
0.0
  0
LINE
  5
3D48
330
3D39
100
AcDbEntity
  8
0
 62
     0
100
AcDbLine
 10
154.7488399733272
 20
189.2202955561714
 30
0.0
 11
156.4425015170297
 21
190.9139570998738
 31
0.0
  0
LINE
  5
3D49
330
3D39
100
AcDbEntity
  8
0
 62
     0
100
AcDbLine
 10
159.7488399733271
 20
194.2202955561713
 30
0.0
 11
161.7488399733272
 21
196.2202955561714
 31
0.0
  0
LINE
  5
3D4A
330
3D39
100
AcDbEntity
  8
0
 62
     0
100
AcDbLine
 10
155.3263849935128
 20
188.9139570998738
 30
0.0
 11
157.3263849935129
 21
190.9139570998738
 31
0.0
  0
LINE
  5
3D4B
330
3D39
100
AcDbEntity
  8
0
 62
     0
100
AcDbLine
 10
159.7488399733271
 20
193.3364120796881
 30
0.0
 11
161.7488399733272
 21
195.3364120796882
 31
0.0
  0
LINE
  5
3D4C
330
3D39
100
AcDbEntity
  8
0
 62
     0
100
AcDbLine
 10
156.210268469996
 20
188.9139570998738
 30
0.0
 11
158.210268469996
 21
190.9139570998738
 31
0.0
  0
LINE
  5
3D4D
330
3D39
100
AcDbEntity
  8
0
 62
     0
100
AcDbLine
 10
159.7488399733271
 20
192.4525286032049
 30
0.0
 11
161.7488399733272
 21
194.452528603205
 31
0.0
  0
LINE
  5
3D4E
330
3D39
100
AcDbEntity
  8
0
 62
     0
100
AcDbLine
 10
157.0941519464792
 20
188.9139570998738
 30
0.0
 11
159.0941519464792
 21
190.9139570998738
 31
0.0
  0
LINE
  5
3D4F
330
3D39
100
AcDbEntity
  8
0
 62
     0
100
AcDbLine
 10
159.7488399733271
 20
191.5686451267217
 30
0.0
 11
161.7488399733272
 21
193.5686451267219
 31
0.0
  0
LINE
  5
3D50
330
3D39
100
AcDbEntity
  8
0
 62
     0
100
AcDbLine
 10
157.9780354229624
 20
188.9139570998738
 30
0.0
 11
161.7488399733273
 21
192.6847616502387
 31
0.0
  0
LINE
  5
3D51
330
3D39
100
AcDbEntity
  8
0
 62
     0
100
AcDbLine
 10
158.8619188994455
 20
188.9139570998738
 30
0.0
 11
161.7488399733273
 21
191.8008781737555
 31
0.0
  0
LINE
  5
3D52
330
3D39
100
AcDbEntity
  8
0
 62
     0
100
AcDbLine
 10
159.8094757239473
 20
188.9776304478924
 30
0.0
 11
161.6851666253087
 21
190.8533213492537
 31
0.0
  0
ENDBLK
  5
3D54
330
3D39
100
AcDbEntity
  8
SCALE
100
AcDbBlockEnd
  0
BLOCK
  5
3D61
330
3D55
100
AcDbEntity
  8
SCALE
100
AcDbBlockBegin
  2
*D23
 70
     1
 10
0.0
 20
0.0
 30
0.0
  3
*D23
  1

  0
LINE
  5
3D56
330
3D55
100
AcDbEntity
  8
0
  6
ByBlock
 62
     0
100
AcDbLine
 10
102.8113399733272
 20
151.4139570998738
 30
0.0
 11
124.1135003610507
 21
151.4139570998738
 31
0.0
  0
LINE
  5
3D57
330
3D55
100
AcDbEntity
  8
0
  6
ByBlock
 62
     0
100
AcDbLine
 10
113.0613399733272
 20
144.4139570998738
 30
0.0
 11
124.1135003610507
 21
144.4139570998738
 31
0.0
  0
LINE
  5
3D58
330
3D55
100
AcDbEntity
  8
0
  6
ByBlock
 62
     0
100
AcDbLine
 10
122.3635003610507
 20
142.9139570998738
 30
0.0
 11
122.3635003610507
 21
141.4139570998738
 31
0.0
  0
LINE
  5
3D59
330
3D55
100
AcDbEntity
  8
0
  6
ByBlock
 62
     0
100
AcDbLine
 10
122.3635003610507
 20
152.9139570998738
 30
0.0
 11
122.3635003610507
 21
154.4139570998738
 31
0.0
  0
INSERT
  5
3D5A
330
3D55
100
AcDbEntity
  8
0
  6
ByBlock
 62
     0
100
AcDbBlockReference
  2
YAZ3
 10
122.3635003610507
 20
144.4139570998738
 30
0.0
 41
1.5
 42
1.5
 43
1.5
 50
90.0
  0
INSERT
  5
3D5B
330
3D55
100
AcDbEntity
  8
0
  6
ByBlock
 62
     0
100
AcDbBlockReference
  2
YAZ3
 10
122.3635003610507
 20
151.4139570998738
 30
0.0
 41
1.5
 42
1.5
 43
1.5
 50
270.0
  0
LINE
  5
3D5C
330
3D55
100
AcDbEntity
  8
0
  6
ByBlock
 62
     0
100
AcDbLine
 10
122.3635003610507
 20
144.4139570998738
 30
0.0
 11
122.3635003610507
 21
151.4139570998738
 31
0.0
  0
TEXT
  5
3D5D
330
3D55
100
AcDbEntity
  8
0
  6
ByBlock
 62
     0
100
AcDbText
 10
121.1135003610507
 20
147.0806237665405
 30
0.0
 40
2.5
  1
7
 50
90.0
  7
CMP-SET
100
AcDbText
  0
POINT
  5
3D5E
330
3D55
100
AcDbEntity
  8
DEFPOINTS
  6
ByBlock
 62
     0
100
AcDbPoint
 10
102.7488399733272
 20
151.4139570998738
 30
0.0
  0
POINT
  5
3D5F
330
3D55
100
AcDbEntity
  8
DEFPOINTS
  6
ByBlock
 62
     0
100
AcDbPoint
 10
112.9988399733272
 20
144.4139570998738
 30
0.0
  0
POINT
  5
3D60
330
3D55
100
AcDbEntity
  8
DEFPOINTS
  6
ByBlock
 62
     0
100
AcDbPoint
 10
122.3635003610507
 20
144.4139570998738
 30
0.0
  0
ENDBLK
  5
3D62
330
3D55
100
AcDbEntity
  8
SCALE
100
AcDbBlockEnd
  0
BLOCK
  5
3D65
330
3D63
100
AcDbEntity
  8
SUNPOU
100
AcDbBlockBegin
  2
YAN2
 70
     0
 10
0.0
 20
0.0
 30
0.0
  3
YAN2
  1

  0
SOLID
  5
3D64
330
3D63
100
AcDbEntity
  8
0
  6
ByBlock
 62
     0
100
AcDbTrace
 10
-0.4829629131445341
 20
0.1294095225512605
 30
0.0
 11
-0.4829629131445342
 21
-0.1294095225512604
 31
0.0
 12
0.0
 22
0.0
 32
0.0
 13
0.0
 23
0.0
 33
0.0
  0
ENDBLK
  5
3D66
330
3D63
100
AcDbEntity
  8
SUNPOU
100
AcDbBlockEnd
  0
BLOCK
  5
3D90
330
3D67
100
AcDbEntity
  8
SCALE
100
AcDbBlockBegin
  2
TMP027805
 70
     0
 10
0.0
 20
0.0
 30
0.0
  3
TMP027805
  1

  0
LWPOLYLINE
  5
3D68
330
3D67
100
AcDbEntity
  8
C3
  6
Continuous
100
AcDbPolyline
 90
        4
 70
     1
 43
0.0
 10
18.0
 20
-0.0000000000000568
 10
406.0
 20
-0.0000000000000568
 10
406.0
 20
282.0
 10
18.0
 20
282.0
  0
LINE
  5
3D69
330
3D67
100
AcDbEntity
  8
C6
100
AcDbLine
 10
357.1585931668094
 20
24.90505401940794
 30
0.0
 11
404.3838128050528
 21
24.90505401940794
 31
0.0
  0
LWPOLYLINE
  5
3D6A
330
3D67
100
AcDbEntity
  8
C6
100
AcDbPolyline
 90
        2
 70
     0
 43
0.0
 10
348.0
 20
14.99999999999994
 10
296.0
 20
14.99999999999994
  0
LWPOLYLINE
  5
3D6B
330
3D67
100
AcDbEntity
  8
C6
100
AcDbPolyline
 90
        2
 70
     0
 43
0.0
 10
406.0
 20
17.90505401940794
 10
348.0
 20
17.90505401940794
  0
TEXT
  5
3D6C
330
3D67
100
AcDbEntity
  8
C6
100
AcDbText
 10
306.2080275624462
 20
0.9999999999999431
 30
0.0
 40
4.0
  1
因幡電機産業株式会社　　因幡電工事業部
  7
KANJI
100
AcDbText
  0
TEXT
  5
3D6D
330
3D67
100
AcDbEntity
  8
C6
100
AcDbText
 10
297.7488372093024
 20
11.73493865592144
 30
0.0
 40
3.0
  1
尺
  7
KANJI
100
AcDbText
  0
TEXT
  5
3D6E
330
3D67
100
AcDbEntity
  8
C6
100
AcDbText
 10
297.7488372093024
 20
8.361472257828211
 30
0.0
 40
3.0
  1
度
  7
KANJI
100
AcDbText
  0
TEXT
  5
3D6F
330
3D67
100
AcDbEntity
  8
C6
100
AcDbText
 10
350.3666666666667
 20
19.8271531465532
 30
0.0
 40
3.5
  1
称
  7
KANJI
 72
     1
 11
352.0
 21
23.3271531465532
 31
0.0
100
AcDbText
 73
     3
  0
TEXT
  5
3D70
330
3D67
100
AcDbEntity
  8
C6
100
AcDbText
 10
350.3666666666667
 20
8.958066288225552
 30
0.0
 40
3.5
  1
番
  7
KANJI
 72
     1
 11
352.0
 21
8.958066288225552
 31
0.0
100
AcDbText
  0
TEXT
  5
3D71
330
3D67
100
AcDbEntity
  8
C6
100
AcDbText
 10
350.3666666666667
 20
13.17631080998592
 30
0.0
 40
3.5
  1
図
  7
KANJI
 72
     1
 11
352.0
 21
13.17631080998592
 31
0.0
100
AcDbText
  0
TEXT
  5
3D72
330
3D67
100
AcDbEntity
  8
C6
100
AcDbText
 10
350.4833333333333
 20
26.36365439785027
 30
0.0
 40
3.5
  1
名
  7
KANJI
 72
     1
 11
352.0
 21
26.36365439785027
 31
0.0
100
AcDbText
  0
LINE
  5
3D73
330
3D67
100
AcDbEntity
  8
C6
100
AcDbLine
 10
356.0
 20
14.99999999999994
 30
0.0
 11
356.0
 21
7.999999999999943
 31
0.0
  0
LINE
  5
3D74
330
3D67
100
AcDbEntity
  8
C6
100
AcDbLine
 10
356.0
 20
33.00906427394028
 30
0.0
 11
356.0
 21
14.99999999999994
 31
0.0
  0
TEXT
  5
3D75
330
3D67
100
AcDbEntity
  8
C6
100
AcDbText
 10
384.8344875107666
 20
34.00906427394029
 30
0.0
 40
3.5
  1
備　　考
  7
KANJI
100
AcDbText
  0
TEXT
  5
3D76
330
3D67
100
AcDbEntity
  8
C6
100
AcDbText
 10
360.8344875107666
 20
34.00906427394029
 30
0.0
 40
3.5
  1
色　　調
  7
KANJI
100
AcDbText
  0
TEXT
  5
3D77
330
3D67
100
AcDbEntity
  8
C6
100
AcDbText
 10
336.8344875107666
 20
34.00906427394029
 30
0.0
 40
3.5
  1
材　　質
  7
KANJI
100
AcDbText
  0
TEXT
  5
3D78
330
3D67
100
AcDbEntity
  8
C6
100
AcDbText
 10
312.8344875107666
 20
34.00906427394029
 30
0.0
 40
3.5
  1
品　　名
  7
KANJI
100
AcDbText
  0
TEXT
  5
3D79
330
3D67
100
AcDbEntity
  8
C6
100
AcDbText
 10
339.3267527993109
 20
30.50906427394028
 30
0.0
 40
2.0
  1
写図
  7
KANJI
100
AcDbText
  0
TEXT
  5
3D7A
330
3D67
100
AcDbEntity
  8
C6
100
AcDbText
 10
326.3267527993108
 20
30.50906427394028
 30
0.0
 40
2.0
  1
検図
  7
KANJI
100
AcDbText
  0
TEXT
  5
3D7B
330
3D67
100
AcDbEntity
  8
C6
100
AcDbText
 10
313.326752799311
 20
30.50906427394028
 30
0.0
 40
2.0
  1
製図
  7
KANJI
100
AcDbText
  0
TEXT
  5
3D7C
330
3D67
100
AcDbEntity
  8
C6
100
AcDbText
 10
299.6401722652886
 20
30.50906427394028
 30
0.0
 40
2.0
  1
 設計
  7
KANJI
100
AcDbText
  0
LWPOLYLINE
  5
3D7D
330
3D67
100
AcDbEntity
  8
C6
100
AcDbPolyline
 90
        2
 70
     0
 43
0.0
 10
348.0
 20
30.00906427394028
 10
296.0
 20
30.00906427394028
  0
LWPOLYLINE
  5
3D7E
330
3D67
100
AcDbEntity
  8
C6
100
AcDbPolyline
 90
        2
 70
     0
 43
0.0
 10
348.0
 20
33.00906427394028
 10
296.0
 20
33.00906427394028
  0
LWPOLYLINE
  5
3D7F
330
3D67
100
AcDbEntity
  8
C6
100
AcDbPolyline
 90
        2
 70
     0
 43
0.0
 10
406.0
 20
33.00906427394028
 10
348.0
 20
33.00906427394028
  0
LINE
  5
3D80
330
3D67
100
AcDbEntity
  8
C6
100
AcDbLine
 10
302.0
 20
7.999999999999943
 30
0.0
 11
302.0
 21
14.99999999999994
 31
0.0
  0
LINE
  5
3D81
330
3D67
100
AcDbEntity
  8
C6
100
AcDbLine
 10
309.0
 20
14.99999999999994
 30
0.0
 11
309.0
 21
33.00906427394028
 31
0.0
  0
LWPOLYLINE
  5
3D82
330
3D67
100
AcDbEntity
  8
C6
100
AcDbPolyline
 90
        2
 70
     0
 43
0.0
 10
348.0
 20
17.90505401940794
 10
296.0
 20
17.90505401940794
  0
LINE
  5
3D83
330
3D67
100
AcDbEntity
  8
C6
100
AcDbLine
 10
381.0
 20
33.00906427394028
 30
0.0
 11
381.0
 21
52.73548800585792
 31
0.0
  0
LINE
  5
3D84
330
3D67
100
AcDbEntity
  8
C6
100
AcDbLine
 10
357.0
 20
33.00906427394028
 30
0.0
 11
357.0
 21
52.73548800585792
 31
0.0
  0
LINE
  5
3D85
330
3D67
100
AcDbEntity
  8
C6
100
AcDbLine
 10
333.0
 20
33.00906427394028
 30
0.0
 11
333.0
 21
52.73548800585792
 31
0.0
  0
LINE
  5
3D86
330
3D67
100
AcDbEntity
  8
C6
100
AcDbLine
 10
309.0
 20
33.00906427394028
 30
0.0
 11
309.0
 21
52.73548800585792
 31
0.0
  0
LINE
  5
3D87
330
3D67
100
AcDbEntity
  8
C6
100
AcDbLine
 10
356.0
 20
7.999999999999943
 30
0.0
 11
356.0
 21
33.00906427394028
 31
0.0
  0
LINE
  5
3D88
330
3D67
100
AcDbEntity
  8
C6
100
AcDbLine
 10
348.0
 20
7.999999999999943
 30
0.0
 11
348.0
 21
33.00906427394028
 31
0.0
  0
LINE
  5
3D89
330
3D67
100
AcDbEntity
  8
C6
100
AcDbLine
 10
335.0
 20
14.99999999999994
 30
0.0
 11
335.0
 21
33.00906427394028
 31
0.0
  0
LINE
  5
3D8A
330
3D67
100
AcDbEntity
  8
C6
100
AcDbLine
 10
322.0
 20
7.999999999999943
 30
0.0
 11
321.9999999999999
 21
33.00906427394028
 31
0.0
  0
LINE
  5
3D8B
330
3D67
100
AcDbEntity
  8
C6
100
AcDbLine
 10
296.0
 20
-0.0000000000000568
 30
0.0
 11
296.0
 21
52.73548800585792
 31
0.0
  0
LWPOLYLINE
  5
3D8C
330
3D67
100
AcDbEntity
  8
C6
100
AcDbPolyline
 90
        2
 70
     0
 43
0.0
 10
406.0
 20
52.73548800585792
 10
296.0
 20
52.73548800585792
  0
LWPOLYLINE
  5
3D8D
330
3D67
100
AcDbEntity
  8
C6
100
AcDbPolyline
 90
        2
 70
     0
 43
0.0
 10
406.0
 20
42.94131111517839
 10
296.0
 20
42.94131111517839
  0
LINE
  5
3D8E
330
3D67
100
AcDbEntity
  8
C6
100
AcDbLine
 10
309.0
 20
7.999999999999943
 30
0.0
 11
309.0
 21
14.99999999999994
 31
0.0
  0
LWPOLYLINE
  5
3D8F
330
3D67
100
AcDbEntity
  8
C6
100
AcDbPolyline
 90
        2
 70
     0
 43
0.0
 10
406.0
 20
7.999999999999943
 10
296.0
 20
7.999999999999943
  0
ENDBLK
  5
3D91
330
3D67
100
AcDbEntity
  8
SCALE
100
AcDbBlockEnd
  0
BLOCK
  5
3F07
330
3D94
100
AcDbEntity
  8
0
 48
2.0
100
AcDbBlockBegin
  2
A$C091735BD
 70
     0
 10
0.0
 20
0.0
 30
0.0
  3
A$C091735BD
  1

  0
INSERT
  5
3D95
330
3D94
100
AcDbEntity
  8
SCALE
100
AcDbBlockReference
  2
TMP027805
 10
-17.99999963648497
 20
-0.0000000656576731
 30
0.0
  0
LINE
  5
3D96
330
3D94
100
AcDbEntity
  8
SCALE
100
AcDbLine
 10
123.0928202376408
 20
149.7373526768654
 30
0.0
 11
188.8433842714586
 21
149.7373526768654
 31
0.0
  0
TEXT
  5
3D97
330
3D94
100
AcDbEntity
  8
SCALE
100
AcDbText
 10
123.0928202376408
 20
150.6453891710904
 30
0.0
 40
3.5
  1
注）A 部曲ゲ角度ハ，任意トスル．
  7
CMP-SET
100
AcDbText
  0
DIMENSION
  5
3D98
330
3D94
100
AcDbEntity
  8
SCALE
100
AcDbDimension
280
     0
  2
*D23
 10
99.86350072456577
 20
136.9139570342161
 30
0.0
 11
97.36350072456577
 21
140.4139570342161
 31
0.0
 12
-22.49999963648497
 22
-7.500000065657729
 32
0.0
  1
7
 71
     5
 42
-1.0
 73
     0
 74
     0
 75
     0
100
AcDbAlignedDimension
 13
80.24884033684225
 23
143.9139570342161
 33
0.0
 14
90.4988403368422
 24
136.9139570342161
 34
0.0
 50
90.0
100
AcDbRotatedDimension
  0
LINE
  5
3D99
330
3D94
100
AcDbEntity
  8
0
100
AcDbLine
 10
80.24884033684225
 20
140.9139570342161
 30
0.0
 11
80.24884033684225
 21
141.913957034216
 31
0.0
  0
LINE
  5
3D9A
330
3D94
100
AcDbEntity
  8
0
100
AcDbLine
 10
60.24884033684225
 20
140.913957034216
 30
0.0
 11
60.24884033684219
 21
141.913957034216
 31
0.0
  0
LINE
  5
3D9B
330
3D94
100
AcDbEntity
  8
CENTER
100
AcDbLine
 10
70.24884033684219
 20
145.3816363509199
 30
0.0
 11
70.24884033684219
 21
115.4020187638094
 31
0.0
  0
LINE
  5
3D9C
330
3D94
100
AcDbEntity
  8
0
100
AcDbLine
 10
66.24884033684219
 20
131.9139570342161
 30
0.0
 11
66.24884033684224
 21
143.9139570342161
 31
0.0
  0
LINE
  5
3D9D
330
3D94
100
AcDbEntity
  8
0
100
AcDbLine
 10
80.24884033684225
 20
141.913957034216
 30
0.0
 11
80.24884033684225
 21
138.9139570342161
 31
0.0
  0
LINE
  5
3D9E
330
3D94
100
AcDbEntity
  8
0
100
AcDbLine
 10
58.24884033684225
 20
138.9139570342161
 30
0.0
 11
51.99884303424051
 21
138.9139570342161
 31
0.0
  0
DIMENSION
  5
3D9F
330
3D94
100
AcDbEntity
  8
SCALE
100
AcDbDimension
280
     0
  2
*D11
 10
90.4988403368422
 20
95.19804904625143
 30
0.0
 11
70.24884033684219
 21
97.69804904625143
 31
0.0
 12
-24.49999963648497
 22
-9.500000065657729
 32
0.0
  1
40.5
 71
     5
 42
-1.0
 73
     0
 74
     0
 75
     0
100
AcDbAlignedDimension
 13
49.99884033684219
 23
128.9139570342161
 33
0.0
 14
90.4988403368422
 24
128.9139570342161
 34
0.0
100
AcDbRotatedDimension
  0
DIMENSION
  5
3DA0
330
3D94
100
AcDbEntity
  8
SCALE
100
AcDbDimension
280
     0
  2
*D9
 10
66.24884033684219
 20
109.7266329538511
 30
0.0
 11
63.24884033684219
 21
112.2266329538511
 31
0.0
 12
-24.49999963648497
 22
-9.500000065657729
 32
0.0
  1
6
 71
     5
 42
-1.0
 73
     0
 74
     0
 75
     0
100
AcDbAlignedDimension
 13
60.24884033684219
 23
114.913957034216
 33
0.0
 14
66.24884033684219
 24
114.913957034216
 34
0.0
100
AcDbRotatedDimension
  0
DIMENSION
  5
3DA1
330
3D94
100
AcDbEntity
  8
SCALE
100
AcDbDimension
280
     0
  2
*D8
 10
35.92123947584844
 20
116.913957034216
 30
0.0
 11
33.42123947584844
 21
127.9139570342161
 31
0.0
 12
-26.49999963648497
 22
-7.500000065657729
 32
0.0
  1
(22)
 71
     5
 42
-1.0
 73
     0
 74
     0
 75
     0
100
AcDbAlignedDimension
 13
41.84484355693109
 23
138.9139570342161
 33
0.0
 14
58.24884033684219
 24
116.913957034216
 34
0.0
 50
90.0
100
AcDbRotatedDimension
  0
LINE
  5
3DA2
330
3D94
100
AcDbEntity
  8
0
100
AcDbLine
 10
51.99884033684219
 20
138.9139570342161
 30
0.0
 11
66.24884033684219
 21
138.9139570342161
 31
0.0
  0
LINE
  5
3DA3
330
3D94
100
AcDbEntity
  8
0
100
AcDbLine
 10
60.24884033684219
 20
136.9139570342161
 30
0.0
 11
51.99884033684219
 21
136.9139570342161
 31
0.0
  0
DIMENSION
  5
3DA4
330
3D94
100
AcDbEntity
  8
SCALE
100
AcDbDimension
280
     0
  2
*D7
 10
41.84484355693109
 20
138.9139570342161
 30
0.0
 11
39.3448435569311
 21
134.9139570342161
 31
0.0
 12
-26.49999963648497
 22
-7.500000065657729
 32
0.0
  1
8
 71
     5
 42
-1.0
 73
     0
 74
     0
 75
     0
100
AcDbAlignedDimension
 13
45.99884033684219
 23
130.9139570342161
 33
0.0
 14
49.99884033684219
 24
138.9139570342161
 34
0.0
 50
90.0
100
AcDbRotatedDimension
  0
ARC
  5
3DA5
330
3D94
100
AcDbEntity
  8
0
100
AcDbCircle
 10
51.99884033684219
 20
134.9139570342161
 30
0.0
 40
4.0
100
AcDbArc
 50
90.0
 51
179.9999999999999
  0
ARC
  5
3DA6
330
3D94
100
AcDbEntity
  8
0
100
AcDbCircle
 10
51.99884033684219
 20
134.9139570342161
 30
0.0
 40
2.0
100
AcDbArc
 50
90.0
 51
179.9999999999999
  0
LINE
  5
3DA7
330
3D94
100
AcDbEntity
  8
0
100
AcDbLine
 10
47.99884033684219
 20
130.9139570342161
 30
0.0
 11
47.99884033684219
 21
134.9139570342161
 31
0.0
  0
LINE
  5
3DA8
330
3D94
100
AcDbEntity
  8
0
100
AcDbLine
 10
49.99884033684219
 20
130.9139570342161
 30
0.0
 11
47.99884033684219
 21
130.9139570342161
 31
0.0
  0
LINE
  5
3DA9
330
3D94
100
AcDbEntity
  8
0
100
AcDbLine
 10
49.99884033684219
 20
134.9139570342161
 30
0.0
 11
49.99884033684219
 21
130.9139570342161
 31
0.0
  0
INSERT
  5
3DAA
330
3D94
100
AcDbEntity
  8
SCALE
100
AcDbBlockReference
  2
YAZ3
 10
50.58462677446908
 20
136.3281705965892
 30
0.0
 41
1.5
 42
1.5
 43
1.5
 50
139.1164820164811
  0
TEXT
  5
3DAB
330
3D94
100
AcDbEntity
  8
SCALE
100
AcDbText
 10
53.61662839141786
 20
132.4673395441646
 30
0.0
 40
2.5
  1
R2
  7
CMP-SET
100
AcDbText
  0
LINE
  5
3DAC
330
3D94
100
AcDbEntity
  8
SCALE
100
AcDbLine
 10
51.71868945077676
 20
135.3463855660423
 30
0.0
 11
53.11635785561577
 21
134.1363907869118
 31
0.0
  0
DIMENSION
  5
3DAD
330
3D94
100
AcDbEntity
  8
SCALE
100
AcDbDimension
280
     0
  2
*D12
 10
92.49884033684219
 20
95.19804904625143
 30
0.0
 11
99.67741176541364
 21
97.69804904625143
 31
0.0
 12
-24.49999963648497
 22
-9.500000065657729
 32
0.0
  1
2.0
 71
     5
 42
-1.0
 73
     0
 74
     0
 75
     0
100
AcDbAlignedDimension
 13
90.4988403368422
 23
95.19804904625143
 33
0.0
 14
92.49884033684219
 24
128.9139570342161
 34
0.0
100
AcDbRotatedDimension
  0
INSERT
  5
3DAE
330
3D94
100
AcDbEntity
  8
SCALE
100
AcDbBlockReference
  2
YAZ3
 10
89.9130538992153
 20
136.3281705965891
 30
0.0
 41
-1.5
 42
1.5
 43
1.5
 50
220.8835179835188
  0
ARC
  5
3DAF
330
3D94
100
AcDbEntity
  8
0
100
AcDbCircle
 10
88.49884033684219
 20
134.9139570342161
 30
0.0
 40
4.0
100
AcDbArc
 50
0.0
 51
89.99999999999998
  0
ARC
  5
3DB0
330
3D94
100
AcDbEntity
  8
0
100
AcDbCircle
 10
88.49884033684219
 20
134.9139570342161
 30
0.0
 40
2.0
100
AcDbArc
 50
0.0
 51
90.0
  0
LINE
  5
3DB1
330
3D94
100
AcDbEntity
  8
0
100
AcDbLine
 10
60.24884033684219
 20
116.913957034216
 30
0.0
 11
60.24884033684219
 21
134.9139570342161
 31
0.0
  0
LINE
  5
3DB2
330
3D94
100
AcDbEntity
  8
0
100
AcDbLine
 10
66.24884033684219
 20
131.9139570342161
 30
0.0
 11
66.24884033684219
 21
116.913957034216
 31
0.0
  0
LINE
  5
3DB3
330
3D94
100
AcDbEntity
  8
0
100
AcDbLine
 10
74.24884033684219
 20
116.913957034216
 30
0.0
 11
74.24884033684219
 21
136.9139570342161
 31
0.0
  0
LINE
  5
3DB4
330
3D94
100
AcDbEntity
  8
0
100
AcDbLine
 10
80.24884033684219
 20
136.9139570342161
 30
0.0
 11
80.24884033684219
 21
116.913957034216
 31
0.0
  0
TEXT
  5
3DB5
330
3D94
100
AcDbEntity
  8
SCALE
100
AcDbText
 10
72.73142544191199
 20
106.2630051259015
 30
0.0
 40
1.5
  1
＋0
  7
CMP-SET
100
AcDbText
  0
LINE
  5
3DB6
330
3D94
100
AcDbEntity
  8
SUNPOU
100
AcDbLine
 10
60.24884033684219
 20
102.753296033957
 30
0.0
 11
80.24884033684219
 21
102.7532960339571
 31
0.0
  0
TEXT
  5
3DB7
330
3D94
100
AcDbEntity
  8
SCALE
100
AcDbText
 10
73.46286396234444
 20
100.527516191743
 30
0.0
 40
1.5
  1
＋0.5
  7
CMP-SET
100
AcDbText
  0
TEXT
  5
3DB8
330
3D94
100
AcDbEntity
  8
SCALE
100
AcDbText
 10
73.46286396234444
 20
98.82674942478196
 30
0.0
 40
1.5
  1
－0
  7
CMP-SET
100
AcDbText
  0
DIMENSION
  5
3DB9
330
3D94
100
AcDbEntity
  8
SCALE
100
AcDbDimension
280
     0
  2
*D10
 10
74.24884033684225
 20
109.7266329538511
 30
0.0
 11
77.24884033684225
 21
112.2266329538511
 31
0.0
 12
-24.49999963648497
 22
-9.500000065657729
 32
0.0
  1
6
 71
     5
 42
-1.0
 73
     0
 74
     0
 75
     0
100
AcDbAlignedDimension
 13
80.24884033684219
 23
114.913957034216
 33
0.0
 14
74.24884033684225
 24
114.913957034216
 34
0.0
100
AcDbRotatedDimension
  0
LINE
  5
3DBA
330
3D94
100
AcDbEntity
  8
SUNPOUN
100
AcDbLine
 10
60.24884033684219
 20
114.413957034216
 30
0.0
 11
60.24884033684219
 21
101.0782960339571
 31
0.0
  0
INSERT
  5
3DBB
330
3D94
100
AcDbEntity
  8
SUNPOU
100
AcDbBlockReference
  2
YAN2
 10
60.24884033684219
 20
102.753296033957
 30
0.0
 41
3.75
 42
3.75
 43
3.75
 50
180.0
  0
TEXT
  5
3DBC
330
3D94
100
AcDbEntity
  8
SUNPOUA
100
AcDbText
 10
68.22503081303273
 20
104.0032960339571
 30
0.0
 40
2.5
  1
20
  7
CMP-SET
 72
     1
 11
70.24884033684225
 21
104.0032960339571
 31
0.0
100
AcDbText
  0
LINE
  5
3DBD
330
3D94
100
AcDbEntity
  8
0
  6
DASHED
100
AcDbLine
 10
60.24884033684219
 20
118.9139570342161
 30
0.0
 11
66.24884033684219
 21
118.9139570342161
 31
0.0
  0
LINE
  5
3DBE
330
3D94
100
AcDbEntity
  8
0
100
AcDbLine
 10
66.24884033684219
 20
116.913957034216
 30
0.0
 11
60.24884033684219
 21
116.913957034216
 31
0.0
  0
LINE
  5
3DBF
330
3D94
100
AcDbEntity
  8
SUNPOUN
100
AcDbLine
 10
80.24884033684225
 20
114.413957034216
 30
0.0
 11
80.24884033684219
 21
101.0782960339571
 31
0.0
  0
INSERT
  5
3DC0
330
3D94
100
AcDbEntity
  8
SUNPOU
100
AcDbBlockReference
  2
YAN2
 10
80.24884033684219
 20
102.7532960339571
 30
0.0
 41
3.75
 42
3.75
 43
3.75
 50
0.0000000000000407
  0
LINE
  5
3DC1
330
3D94
100
AcDbEntity
  8
0
100
AcDbLine
 10
74.24884033684219
 20
118.9139570342161
 30
0.0
 11
80.24884033684225
 21
118.9139570342161
 31
0.0
  0
LINE
  5
3DC2
330
3D94
100
AcDbEntity
  8
0
100
AcDbLine
 10
80.24884033684219
 20
116.913957034216
 30
0.0
 11
74.24884033684219
 21
116.913957034216
 31
0.0
  0
LINE
  5
3DC3
330
3D94
100
AcDbEntity
  8
0
100
AcDbLine
 10
88.49884033684219
 20
136.9139570342161
 30
0.0
 11
66.24884033684219
 21
136.9139570342161
 31
0.0
  0
LINE
  5
3DC4
330
3D94
100
AcDbEntity
  8
0
100
AcDbLine
 10
66.24884033684219
 20
134.9139570342161
 30
0.0
 11
60.24884033684219
 21
134.9139570342161
 31
0.0
  0
LINE
  5
3DC5
330
3D94
100
AcDbEntity
  8
0
100
AcDbLine
 10
60.24884033684219
 20
134.9139570342161
 30
0.0
 11
60.24884033684219
 21
138.9139570342161
 31
0.0
  0
ARC
  5
3DC6
330
3D94
100
AcDbEntity
  8
0
100
AcDbCircle
 10
58.24884033684225
 20
140.913957034216
 30
0.0
 40
2.0
100
AcDbArc
 50
270.0
 51
359.9999999999997
  0
ARC
  5
3DC7
330
3D94
100
AcDbEntity
  8
0
100
AcDbCircle
 10
82.24884033684224
 20
138.9139570342161
 30
0.0
 40
2.0
100
AcDbArc
 50
179.9999999999999
 51
269.9999999999999
  0
ARC
  5
3DC8
330
3D94
100
AcDbEntity
  8
0
100
AcDbCircle
 10
82.24884033684224
 20
140.9139570342161
 30
0.0
 40
2.0
100
AcDbArc
 50
180.0
 51
269.9999999999998
  0
TEXT
  5
3DC9
330
3D94
100
AcDbEntity
  8
SCALE
100
AcDbText
 10
82.54284102093834
 20
132.4673395441646
 30
0.0
 40
2.5
  1
R2
  7
CMP-SET
100
AcDbText
  0
LINE
  5
3DCA
330
3D94
100
AcDbEntity
  8
SCALE
100
AcDbLine
 10
88.77899122290761
 20
135.3463855660423
 30
0.0
 11
87.3813228180686
 21
134.1363907869117
 31
0.0
  0
LINE
  5
3DCB
330
3D94
100
AcDbEntity
  8
0
100
AcDbLine
 10
82.24884033684224
 20
138.9139570342161
 30
0.0
 11
88.49884033684219
 21
138.9139570342161
 31
0.0
  0
LINE
  5
3DCC
330
3D94
100
AcDbEntity
  8
0
100
AcDbLine
 10
82.24884033684224
 20
136.9139570342161
 30
0.0
 11
88.49884033684219
 21
136.9139570342161
 31
0.0
  0
LINE
  5
3DCD
330
3D94
100
AcDbEntity
  8
0
100
AcDbLine
 10
90.4988403368422
 20
130.9139570342161
 30
0.0
 11
90.4988403368422
 21
134.9139570342161
 31
0.0
  0
LINE
  5
3DCE
330
3D94
100
AcDbEntity
  8
0
100
AcDbLine
 10
92.49884033684219
 20
130.9139570342161
 30
0.0
 11
90.4988403368422
 21
130.9139570342161
 31
0.0
  0
LINE
  5
3DCF
330
3D94
100
AcDbEntity
  8
0
100
AcDbLine
 10
92.49884033684219
 20
134.9139570342161
 30
0.0
 11
92.49884033684219
 21
130.9139570342161
 31
0.0
  0
TEXT
  5
3DD0
330
3D94
100
AcDbEntity
  8
SCALE
100
AcDbText
 10
55.78677543433474
 20
147.0296474991239
 30
0.0
 40
2.5
  1
R2
  7
CMP-SET
100
AcDbText
  0
LINE
  5
3DD1
330
3D94
100
AcDbEntity
  8
SCALE
100
AcDbLine
 10
65.00263136965464
 20
236.3870716610239
 30
0.0
 11
47.15975581641777
 21
236.3870716610239
 31
0.0
  0
TEXT
  5
3DD2
330
3D94
100
AcDbEntity
  8
SCALE
100
AcDbText
 10
47.79391294431957
 20
237.4680674874821
 30
0.0
 40
2.5
  1
刻印指定ロゴ
  7
CMP-SET
100
AcDbText
  0
LINE
  5
3DD3
330
3D94
100
AcDbEntity
  8
SCALE
100
AcDbLine
 10
58.90308663237902
 20
181.6297756558077
 30
0.0
 11
57.62819327835757
 21
179.6720268620433
 31
0.0
  0
TEXT
  5
3DD4
330
3D94
100
AcDbEntity
  8
SCALE
100
AcDbText
 10
54.76964135123933
 20
176.6296223744083
 30
0.0
 40
2.5
  1
RF
  7
CMP-SET
100
AcDbText
  0
LINE
  5
3DD5
330
3D94
100
AcDbEntity
  8
CENTER
100
AcDbLine
 10
42.24503807517885
 20
203.9139570342161
 30
0.0
 11
97.33023223064833
 21
203.9139570342161
 31
0.0
  0
LINE
  5
3DD6
330
3D94
100
AcDbEntity
  8
0
100
AcDbLine
 10
60.24884033684219
 20
183.4139570342161
 30
0.0
 11
47.99884033684219
 21
183.4139570342161
 31
0.0
  0
LINE
  5
3DD7
330
3D94
100
AcDbEntity
  8
0
100
AcDbLine
 10
47.99884033684219
 20
224.4139570342161
 30
0.0
 11
58.44884033684218
 21
224.4139570342161
 31
0.0
  0
LINE
  5
3DD8
330
3D94
100
AcDbEntity
  8
SCALE
100
AcDbLine
 10
47.15975581641777
 20
236.3870716610239
 30
0.0
 11
55.53351243712103
 21
212.5330970905104
 31
0.0
  0
DIMENSION
  5
3DD9
330
3D94
100
AcDbEntity
  8
SCALE
100
AcDbDimension
280
     0
  2
*D6
 10
35.92123947584844
 20
183.4139570342161
 30
0.0
 11
33.42123947584844
 21
203.9139570342161
 31
0.0
 12
-26.49999963648497
 22
-7.500000065657729
 32
0.0
  1
41
 71
     5
 42
-1.0
 73
     0
 74
     0
 75
     0
100
AcDbAlignedDimension
 13
45.99884033684219
 23
224.4139570342161
 33
0.0
 14
45.99884033684219
 24
183.4139570342161
 34
0.0
 50
90.0
100
AcDbRotatedDimension
  0
LINE
  5
3DDA
330
3D94
100
AcDbEntity
  8
SCALE
  6
PHANTOM
100
AcDbLine
 10
53.49884033684219
 20
179.0222264703026
 30
0.0
 11
53.49884033684219
 21
219.249684492238
 31
0.0
  0
LINE
  5
3DDB
330
3D94
100
AcDbEntity
  8
0
  6
DASHED
100
AcDbLine
 10
49.99884033684219
 20
224.4139570342161
 30
0.0
 11
49.99884033684219
 21
183.4139570342161
 31
0.0
  0
LINE
  5
3DDC
330
3D94
100
AcDbEntity
  8
0
100
AcDbLine
 10
47.99884033684219
 20
183.4139570342161
 30
0.0
 11
47.99884033684219
 21
224.4139570342161
 31
0.0
  0
DIMENSION
  5
3DDD
330
3D94
100
AcDbEntity
  8
SCALE
100
AcDbDimension
280
     0
  2
*D13
 10
53.49884033684219
 20
173.3468406603444
 30
0.0
 11
50.74884033684219
 21
175.8468406603444
 31
0.0
 12
-24.49999963648497
 22
-9.500000065657729
 32
0.0
  1
5.5
 71
     5
 42
-1.0
 73
     0
 74
     0
 75
     0
100
AcDbAlignedDimension
 13
47.99884033684219
 23
181.4139570342161
 33
0.0
 14
53.49884033684219
 24
181.413957034216
 34
0.0
100
AcDbRotatedDimension
  0
TEXT
  5
3DDE
330
3D94
100
AcDbEntity
  8
SCALE
100
AcDbText
 10
53.49884033684219
 20
211.5167620424661
 30
0.0
 40
4.2
  1
INABA
 50
270.0
  7
SMP-SET
 72
     1
 11
53.49884033684219
 21
202.6167620424661
 31
0.0
100
AcDbText
  0
CIRCLE
  5
3DDF
330
3D94
100
AcDbEntity
  8
SCALE
100
AcDbCircle
 10
36.11965672612746
 20
254.3460156579179
 30
0.0
 40
5.0
  0
TEXT
  5
3DE0
330
3D94
100
AcDbEntity
  8
SCALE
100
AcDbText
 10
35.45195841534328
 20
252.2682220355847
 30
0.0
 40
3.5
  1
1
  7
CMP-SET
100
AcDbText
  0
LINE
  5
3DE1
330
3D94
100
AcDbEntity
  8
SCALE
100
AcDbLine
 10
85.31007212450981
 20
231.2991846378267
 30
0.0
 11
72.54961874778729
 21
208.6329525527273
 31
0.0
  0
TEXT
  5
3DE2
330
3D94
100
AcDbEntity
  8
SCALE
100
AcDbText
 10
158.7858229891313
 20
226.9896146096796
 30
0.0
 40
3.5
  1
A
  7
CMP-SET
100
AcDbText
  0
LINE
  5
3DE3
330
3D94
100
AcDbEntity
  8
CENTER
100
AcDbLine
 10
70.24884033684219
 20
233.2449771254516
 30
0.0
 11
70.24884033684219
 21
175.7215858801833
 31
0.0
  0
LINE
  5
3DE4
330
3D94
100
AcDbEntity
  8
SCALE
100
AcDbLine
 10
97.4599461886283
 20
167.3907113776112
 30
0.0
 11
149.2590534086066
 21
167.3907113776112
 31
0.0
  0
TEXT
  5
3DE5
330
3D94
100
AcDbEntity
  8
SCALE
100
AcDbText
 10
97.67613611859481
 20
168.4572939263834
 30
0.0
 40
3.5
  1
※）字ノ寸法ハ12Pトスル
  7
CMP-SET
100
AcDbText
  0
LINE
  5
3DE6
330
3D94
100
AcDbEntity
  8
SCALE
100
AcDbLine
 10
128.6201214278028
 20
175.7792389909277
 30
0.0
 11
100.890159744097
 21
175.7792389909277
 31
0.0
  0
TEXT
  5
3DE7
330
3D94
100
AcDbEntity
  8
SCALE
100
AcDbText
 10
101.3225396040301
 20
176.6972240438249
 30
0.0
 40
2.5
  1
刻印中丸ゴシック体
  7
CMP-SET
100
AcDbText
  0
LINE
  5
3DE8
330
3D94
100
AcDbEntity
  8
SCALE
100
AcDbLine
 10
100.890159744097
 20
175.7792389909277
 30
0.0
 11
87.14048019822632
 21
198.3504318473773
 31
0.0
  0
LINE
  5
3DE9
330
3D94
100
AcDbEntity
  8
SCALE
  6
PHANTOM
100
AcDbLine
 10
86.99884033684218
 20
179.0222264703026
 30
0.0
 11
86.99884033684231
 21
219.249684492238
 31
0.0
  0
LINE
  5
3DEA
330
3D94
100
AcDbEntity
  8
0
  6
DASHED
100
AcDbLine
 10
66.24884033684219
 20
195.9139570342161
 30
0.0
 11
66.24884033684219
 21
181.4139570342161
 31
0.0
  0
LINE
  5
3DEB
330
3D94
100
AcDbEntity
  8
0
  6
DASHED
100
AcDbLine
 10
60.24884033684219
 20
181.4139570342161
 30
0.0
 11
60.24884033684219
 21
195.9139570342161
 31
0.0
  0
LINE
  5
3DEC
330
3D94
100
AcDbEntity
  8
0
  6
DASHED
100
AcDbLine
 10
90.4988403368422
 20
224.4139570342161
 30
0.0
 11
90.4988403368422
 21
183.4139570342161
 31
0.0
  0
LINE
  5
3DED
330
3D94
100
AcDbEntity
  8
0
100
AcDbLine
 10
92.49884033684219
 20
224.4139570342161
 30
0.0
 11
92.49884033684219
 21
183.4139570342161
 31
0.0
  0
DIMENSION
  5
3DEE
330
3D94
100
AcDbEntity
  8
SCALE
100
AcDbDimension
280
     0
  2
*D14
 10
86.99884033684218
 20
173.3468406603444
 30
0.0
 11
89.74884033684219
 21
175.8468406603444
 31
0.0
 12
-24.49999963648497
 22
-9.500000065657729
 32
0.0
  1
5.5
 71
     5
 42
-1.0
 73
     0
 74
     0
 75
     0
100
AcDbAlignedDimension
 13
92.49884033684214
 23
181.4139570342161
 33
0.0
 14
86.99884033684218
 24
181.413957034216
 34
0.0
100
AcDbRotatedDimension
  0
LINE
  5
3DEF
330
3D94
100
AcDbEntity
  8
0
100
AcDbLine
 10
92.49884033684219
 20
183.4139570342161
 30
0.0
 11
82.04884033684221
 21
183.4139570342161
 31
0.0
  0
LINE
  5
3DF0
330
3D94
100
AcDbEntity
  8
0
100
AcDbLine
 10
62.24884033684219
 20
143.9139570342161
 30
0.0
 11
78.24884033684225
 21
143.9139570342161
 31
0.0
  0
ARC
  5
3DF1
330
3D94
100
AcDbEntity
  8
0
100
AcDbCircle
 10
62.24884033684219
 20
141.913957034216
 30
0.0
 40
2.0
100
AcDbArc
 50
90.0
 51
179.9999999999999
  0
INSERT
  5
3DF2
330
3D94
100
AcDbEntity
  8
SCALE
100
AcDbBlockReference
  2
YAZ3
 10
60.83462677446909
 20
143.3281705965892
 30
0.0
 41
-1.5
 42
1.5
 43
1.5
 50
127.2914456788872
  0
LINE
  5
3DF3
330
3D94
100
AcDbEntity
  8
SCALE
100
AcDbLine
 10
59.92582233176205
 20
144.5215165166459
 30
0.0
 11
58.54638595737504
 21
146.3328465366105
 31
0.0
  0
TEXT
  5
3DF4
330
3D94
100
AcDbEntity
  8
SCALE
100
AcDbText
 10
80.50585660385127
 20
147.0296474991239
 30
0.0
 40
2.5
  1
R2
  7
CMP-SET
100
AcDbText
  0
LINE
  5
3DF5
330
3D94
100
AcDbEntity
  8
SCALE
100
AcDbLine
 10
80.57185834192233
 20
144.5215165166459
 30
0.0
 11
81.95129471630934
 21
146.3328465366105
 31
0.0
  0
INSERT
  5
3DF6
330
3D94
100
AcDbEntity
  8
SCALE
100
AcDbBlockReference
  2
YAZ3
 10
79.66305389921529
 20
143.3281705965892
 30
0.0
 41
1.5
 42
1.5
 43
1.5
 50
232.7085543211128
  0
ARC
  5
3DF7
330
3D94
100
AcDbEntity
  8
0
100
AcDbCircle
 10
78.24884033684225
 20
141.913957034216
 30
0.0
 40
2.0
100
AcDbArc
 50
0.0
 51
90.0
  0
LINE
  5
3DF8
330
3D94
100
AcDbEntity
  8
0
  6
Continuous
100
AcDbLine
 10
66.24884033684219
 20
183.4139570342161
 30
0.0
 11
81.98074720302537
 21
183.4139570342161
 31
0.0
  0
LINE
  5
3DF9
330
3D94
100
AcDbEntity
  8
0
100
AcDbLine
 10
80.24884033684219
 20
181.4139570342161
 30
0.0
 11
60.24884033684219
 21
181.4139570342161
 31
0.0
  0
INSERT
  5
3DFA
330
3D94
100
AcDbEntity
  8
SCALE
100
AcDbBlockReference
  2
YAZ3
 10
59.721632542978
 20
182.8867492403518
 30
0.0
 41
1.5
 42
1.5
 43
1.5
 50
56.92767423466078
  0
ARC
  5
3DFB
330
3D94
100
AcDbEntity
  8
0
100
AcDbCircle
 10
58.44884033684218
 20
181.613957034216
 30
0.0
 40
1.8
100
AcDbArc
 50
0.0
 51
90.0
  0
LINE
  5
3DFC
330
3D94
100
AcDbEntity
  8
0
100
AcDbLine
 10
60.24884033684219
 20
181.4139570342161
 30
0.0
 11
60.24884033684219
 21
181.613957034216
 31
0.0
  0
TEXT
  5
3DFD
330
3D94
100
AcDbEntity
  8
SCALE
100
AcDbText
 10
80.9862735251794
 20
176.6296223744083
 30
0.0
 40
2.5
  1
RF
  7
CMP-SET
100
AcDbText
  0
INSERT
  5
3DFE
330
3D94
100
AcDbEntity
  8
SCALE
100
AcDbBlockReference
  2
YAZ3
 10
80.77604813070639
 20
182.8867492403518
 30
0.0
 41
-1.5
 42
1.5
 43
1.5
 50
303.0723257653393
  0
LINE
  5
3DFF
330
3D94
100
AcDbEntity
  8
SCALE
100
AcDbLine
 10
81.59459404130529
 20
181.6297756558077
 30
0.0
 11
82.86948739532681
 21
179.6720268620433
 31
0.0
  0
ARC
  5
3E00
330
3D94
100
AcDbEntity
  8
0
100
AcDbCircle
 10
82.04884033684221
 20
181.613957034216
 30
0.0
 40
1.8
100
AcDbArc
 50
90.0
 51
179.9999999999999
  0
LINE
  5
3E01
330
3D94
100
AcDbEntity
  8
0
100
AcDbLine
 10
80.24884033684219
 20
181.613957034216
 30
0.0
 11
80.24884033684219
 21
181.4139570342161
 31
0.0
  0
LINE
  5
3E02
330
3D94
100
AcDbEntity
  8
0
100
AcDbLine
 10
82.04884033684221
 20
224.4139570342161
 30
0.0
 11
92.49884033684219
 21
224.4139570342161
 31
0.0
  0
TEXT
  5
3E03
330
3D94
100
AcDbEntity
  8
SCALE
100
AcDbText
 10
86.99884033684226
 20
194.7139570342161
 30
0.0
 40
4.2
  1
SCX-1
 50
90.0
  7
SMP-SET
 72
     1
 11
86.99884033684226
 21
203.9139570342161
 31
0.0
100
AcDbText
  0
CIRCLE
  5
3E04
330
3D94
100
AcDbEntity
  8
0
100
AcDbCircle
 10
70.24884033684225
 20
203.9139570342161
 30
0.0
 40
5.25
  0
LINE
  5
3E05
330
3D94
100
AcDbEntity
  8
0
  6
DASHED
100
AcDbLine
 10
66.24884033684214
 20
193.9139570342161
 30
0.0
 11
60.24884033684213
 21
193.9139570342161
 31
0.0
  0
LINE
  5
3E06
330
3D94
100
AcDbEntity
  8
0
  6
DASHED
100
AcDbLine
 10
60.24884033684219
 20
195.9139570342161
 30
0.0
 11
66.24884033684219
 21
195.9139570342161
 31
0.0
  0
LINE
  5
3E07
330
3D94
100
AcDbEntity
  8
0
  6
Continuous
100
AcDbLine
 10
58.44884033684218
 20
224.4139570342161
 30
0.0
 11
74.24884033684219
 21
224.4139570342161
 31
0.0
  0
LINE
  5
3E08
330
3D94
100
AcDbEntity
  8
0
100
AcDbLine
 10
60.24884033684219
 20
226.4139570342161
 30
0.0
 11
80.24884033684219
 21
226.4139570342161
 31
0.0
  0
ARC
  5
3E09
330
3D94
100
AcDbEntity
  8
0
100
AcDbCircle
 10
58.44884033684218
 20
226.2139570342161
 30
0.0
 40
1.8
100
AcDbArc
 50
270.0
 51
0.0
  0
LINE
  5
3E0A
330
3D94
100
AcDbEntity
  8
0
100
AcDbLine
 10
60.24884033684219
 20
226.2139570342161
 30
0.0
 11
60.24884033684219
 21
226.4139570342161
 31
0.0
  0
LINE
  5
3E0B
330
3D94
100
AcDbEntity
  8
0
  6
DASHED
100
AcDbLine
 10
80.24884033684219
 20
211.9139570342161
 30
0.0
 11
80.24884033684219
 21
226.4139570342161
 31
0.0
  0
LINE
  5
3E0C
330
3D94
100
AcDbEntity
  8
0
  6
DASHED
100
AcDbLine
 10
74.24884033684219
 20
226.4139570342161
 30
0.0
 11
74.24884033684219
 21
211.9139570342161
 31
0.0
  0
LINE
  5
3E0D
330
3D94
100
AcDbEntity
  8
0
  6
DASHED
100
AcDbLine
 10
74.24884033684219
 20
211.9139570342161
 30
0.0
 11
80.24884033684219
 21
211.9139570342161
 31
0.0
  0
LINE
  5
3E0E
330
3D94
100
AcDbEntity
  8
0
  6
DASHED
100
AcDbLine
 10
74.24884033684219
 20
213.9139570342161
 30
0.0
 11
80.24884033684219
 21
213.9139570342161
 31
0.0
  0
ARC
  5
3E0F
330
3D94
100
AcDbEntity
  8
0
100
AcDbCircle
 10
82.04884033684221
 20
226.2139570342161
 30
0.0
 40
1.8
100
AcDbArc
 50
180.0
 51
269.9999999999999
  0
LINE
  5
3E10
330
3D94
100
AcDbEntity
  8
0
100
AcDbLine
 10
80.24884033684219
 20
226.4139570342161
 30
0.0
 11
80.24884033684219
 21
226.2139570342161
 31
0.0
  0
INSERT
  5
3E11
330
3D94
100
AcDbEntity
  8
SCALE
100
AcDbBlockReference
  2
*X22
 10
-24.49999963648497
 20
-7.500000065657729
 30
0.0
  0
DIMENSION
  5
3E12
330
3D94
100
AcDbEntity
  8
SCALE
100
AcDbDimension
280
     0
  2
*D16
 10
165.0890981051916
 20
193.9139570342162
 30
0.0
 11
162.5890981051916
 21
186.97348084374
 31
0.0
 12
-23.41410816361679
 22
-7.500000065657729
 32
0.0
  1
(5)
 71
     5
 42
-1.0
 73
     0
 74
     0
 75
     0
100
AcDbAlignedDimension
 13
158.3347318097104
 23
198.9139570342161
 33
0.0
 14
155.8347318097105
 24
193.9139570342161
 34
0.0
 50
90.00000000000042
100
AcDbRotatedDimension
  0
LINE
  5
3E13
330
3D94
100
AcDbEntity
  8
0
100
AcDbLine
 10
135.2488403368422
 20
198.6639570342161
 30
0.0
 11
135.2488403368422
 21
183.9139570342161
 31
0.0
  0
LINE
  5
3E14
330
3D94
100
AcDbEntity
  8
0
100
AcDbLine
 10
137.2488403368422
 20
198.6639570342161
 30
0.0
 11
137.2488403368423
 21
183.9139570342161
 31
0.0
  0
LINE
  5
3E15
330
3D94
100
AcDbEntity
  8
0
100
AcDbLine
 10
139.2488403368422
 20
183.4139570342161
 30
0.0
 11
139.2488403368422
 21
193.4139570342161
 31
0.0
  0
ARC
  5
3E16
330
3D94
100
AcDbEntity
  8
0
100
AcDbCircle
 10
140.7488403368422
 20
185.9139570342161
 30
0.0
 40
2.5
100
AcDbArc
 50
270.0
 51
0.0
  0
ARC
  5
3E17
330
3D94
100
AcDbEntity
  8
0
100
AcDbCircle
 10
137.2488403368422
 20
183.4139570342161
 30
0.0
 40
2.0
100
AcDbArc
 50
234.0606992731882
 51
0.0
  0
ARC
  5
3E18
330
3D94
100
AcDbEntity
  8
0
100
AcDbCircle
 10
134.7488403368422
 20
183.9139570342161
 30
0.0
 40
2.5
100
AcDbArc
 50
270.0000000000001
 51
0.0000000000000254
  0
LINE
  5
3E19
330
3D94
100
AcDbEntity
  8
0
100
AcDbLine
 10
130.2488403368422
 20
181.4139570342161
 30
0.0
 11
134.7488403368422
 21
181.4139570342161
 31
0.0
  0
LINE
  5
3E1A
330
3D94
100
AcDbEntity
  8
0
100
AcDbLine
 10
131.7488403368422
 20
183.4139570342161
 30
0.0
 11
134.7488403368421
 21
183.4139570342161
 31
0.0
  0
LINE
  5
3E1B
330
3D94
100
AcDbEntity
  8
0
100
AcDbLine
 10
130.2488403368422
 20
183.4139570342161
 30
0.0
 11
130.2488403368422
 21
181.4139570342161
 31
0.0
  0
LINE
  5
3E1C
330
3D94
100
AcDbEntity
  8
0
100
AcDbLine
 10
131.7488403368422
 20
183.4139570342161
 30
0.0
 11
130.2488403368422
 21
183.4139570342161
 31
0.0
  0
ARC
  5
3E1D
330
3D94
100
AcDbEntity
  8
0
100
AcDbCircle
 10
134.7488403368421
 20
183.9139570342161
 30
0.0
 40
0.5
100
AcDbArc
 50
269.9999999999997
 51
359.9999999999994
  0
TEXT
  5
3E1E
330
3D94
100
AcDbEntity
  8
SCALE
100
AcDbText
 10
143.6813532154704
 20
178.9501600818721
 30
0.0
 40
2.5
  1
R2.5
  7
CMP-SET
100
AcDbText
  0
LINE
  5
3E1F
330
3D94
100
AcDbEntity
  8
0
100
AcDbLine
 10
140.7488403368422
 20
183.4139570342161
 30
0.0
 11
139.2488403368422
 21
183.4139570342161
 31
0.0
  0
INSERT
  5
3E20
330
3D94
100
AcDbEntity
  8
SCALE
100
AcDbBlockReference
  2
YAZ3
 10
142.5166072898087
 20
184.1461900812497
 30
0.0
 41
-1.5
 42
1.5
 43
1.5
 50
323.2458610742839
  0
LINE
  5
3E21
330
3D94
100
AcDbEntity
  8
SCALE
100
AcDbLine
 10
143.7184231731573
 20
183.2486163614188
 30
0.0
 11
145.2667460352251
 21
182.0922546174443
 31
0.0
  0
LINE
  5
3E22
330
3D94
100
AcDbEntity
  8
CENTER
100
AcDbLine
 10
129.7587217256264
 20
203.9139570342161
 30
0.0
 11
159.737058680984
 21
203.9139570342161
 31
0.0
  0
LINE
  5
3E23
330
3D94
100
AcDbEntity
  8
0
100
AcDbLine
 10
154.7488403368422
 20
213.9139570342161
 30
0.0
 11
143.2488403368422
 21
213.9139570342161
 31
0.0
  0
LINE
  5
3E24
330
3D94
100
AcDbEntity
  8
0
100
AcDbLine
 10
143.2488403368422
 20
211.9139570342161
 30
0.0
 11
154.7488403368422
 21
211.9139570342161
 31
0.0
  0
LINE
  5
3E25
330
3D94
100
AcDbEntity
  8
0
100
AcDbLine
 10
154.7488403368422
 20
195.9139570342161
 30
0.0
 11
139.7488403368422
 21
195.9139570342161
 31
0.0
  0
LINE
  5
3E26
330
3D94
100
AcDbEntity
  8
0
100
AcDbLine
 10
139.7488403368422
 20
193.9139570342161
 30
0.0
 11
154.7488403368422
 21
193.9139570342161
 31
0.0
  0
LINE
  5
3E27
330
3D94
100
AcDbEntity
  8
0
100
AcDbLine
 10
135.2488403368422
 20
198.6639570342161
 30
0.0
 11
135.2488403368422
 21
224.4139570342161
 31
0.0
  0
LINE
  5
3E28
330
3D94
100
AcDbEntity
  8
0
100
AcDbLine
 10
143.2488403368422
 20
221.9139570342161
 30
0.0
 11
143.2488403368422
 21
195.9139570342161
 31
0.0
  0
ARC
  5
3E29
330
3D94
100
AcDbEntity
  8
0
100
AcDbCircle
 10
139.7488403368422
 20
193.4139570342161
 30
0.0
 40
2.5
100
AcDbArc
 50
90.0
 51
179.9999999999999
  0
LINE
  5
3E2A
330
3D94
100
AcDbEntity
  8
0
100
AcDbLine
 10
137.2488403368422
 20
203.9139570342161
 30
0.0
 11
137.2488403368422
 21
198.6639570342161
 31
0.0
  0
LINE
  5
3E2B
330
3D94
100
AcDbEntity
  8
0
100
AcDbLine
 10
137.2488403368422
 20
198.6639570342161
 30
0.0
 11
135.2488403368422
 21
198.6639570342161
 31
0.0
  0
LINE
  5
3E2C
330
3D94
100
AcDbEntity
  8
0
100
AcDbLine
 10
143.2488403368422
 20
193.9139570342161
 30
0.0
 11
143.2488403368422
 21
185.9139570342161
 31
0.0
  0
ARC
  5
3E2D
330
3D94
100
AcDbEntity
  8
0
100
AcDbCircle
 10
139.7488403368422
 20
193.4139570342161
 30
0.0
 40
0.5
100
AcDbArc
 50
90.0
 51
179.9999999999999
  0
LINE
  5
3E2E
330
3D94
100
AcDbEntity
  8
0
100
AcDbLine
 10
137.2488403368422
 20
224.4139570342161
 30
0.0
 11
140.7488403368422
 21
224.4139570342161
 31
0.0
  0
ARC
  5
3E2F
330
3D94
100
AcDbEntity
  8
0
100
AcDbCircle
 10
137.2488403368422
 20
224.4139570342161
 30
0.0
 40
2.0
100
AcDbArc
 50
0.0
 51
180.0
  0
LINE
  5
3E30
330
3D94
100
AcDbEntity
  8
0
100
AcDbLine
 10
130.2488403368422
 20
226.4139570342161
 30
0.0
 11
134.7488403368422
 21
226.4139570342161
 31
0.0
  0
LINE
  5
3E31
330
3D94
100
AcDbEntity
  8
0
100
AcDbLine
 10
137.2488403368422
 20
224.4139570342161
 30
0.0
 11
131.7488403368422
 21
224.4139570342161
 31
0.0
  0
LINE
  5
3E32
330
3D94
100
AcDbEntity
  8
0
100
AcDbLine
 10
131.7488403368422
 20
224.4139570342161
 30
0.0
 11
130.2488403368422
 21
224.4139570342161
 31
0.0
  0
LINE
  5
3E33
330
3D94
100
AcDbEntity
  8
0
100
AcDbLine
 10
130.2488403368422
 20
224.4139570342161
 30
0.0
 11
130.2488403368422
 21
226.4139570342161
 31
0.0
  0
ARC
  5
3E34
330
3D94
100
AcDbEntity
  8
0
100
AcDbCircle
 10
134.7488403368422
 20
223.9139570342161
 30
0.0
 40
2.5
100
AcDbArc
 50
57.9636135638545
 51
90.00000000000003
  0
TEXT
  5
3E35
330
3D94
100
AcDbEntity
  8
SCALE
100
AcDbText
 10
143.6813532154704
 20
226.528389723724
 30
0.0
 40
2.5
  1
R2.5
  7
CMP-SET
100
AcDbText
  0
ARC
  5
3E36
330
3D94
100
AcDbEntity
  8
0
100
AcDbCircle
 10
140.7488403368422
 20
221.9139570342161
 30
0.0
 40
2.5
100
AcDbArc
 50
0.0
 51
90.0
  0
LINE
  5
3E37
330
3D94
100
AcDbEntity
  8
SCALE
100
AcDbLine
 10
143.7184231731571
 20
224.5792977070133
 30
0.0
 11
145.2667460352248
 21
225.7356594509879
 31
0.0
  0
INSERT
  5
3E38
330
3D94
100
AcDbEntity
  8
SCALE
100
AcDbBlockReference
  2
YAZ3
 10
142.5166072898085
 20
223.6817239871824
 30
0.0
 41
1.5
 42
1.5
 43
1.5
 50
216.7541389257167
  0
LINE
  5
3E39
330
3D94
100
AcDbEntity
  8
SUNPOU
100
AcDbLine
 10
172.7905429991736
 20
195.9139570342161
 30
0.0
 11
172.7905429991738
 21
211.913957034216
 31
0.0
  0
TEXT
  5
3E3A
330
3D94
100
AcDbEntity
  8
SCALE
100
AcDbText
 10
169.3355807912663
 20
206.5159104034371
 30
0.0
 40
1.5
  1
－0
 50
90.0
  7
CMP-SET
100
AcDbText
  0
DIMENSION
  5
3E3B
330
3D94
100
AcDbEntity
  8
SCALE
100
AcDbDimension
280
     0
  2
*D15
 10
165.0890981051915
 20
213.9139570342161
 30
0.0
 11
162.5890981051916
 21
220.8544332246923
 31
0.0
 12
-23.41410816361679
 22
-7.500000065657729
 32
0.0
  1
(5)
 71
     5
 42
-1.0
 73
     0
 74
     0
 75
     0
100
AcDbAlignedDimension
 13
158.3347318097104
 23
208.9139570342161
 33
0.0
 14
155.8347318097104
 24
213.9139570342161
 34
0.0
 50
90.0
100
AcDbRotatedDimension
  0
TEXT
  5
3E3C
330
3D94
100
AcDbEntity
  8
SUNPOUA
100
AcDbText
 10
171.5405429991737
 20
202.1877665580256
 30
0.0
 40
2.5
  1
16
 50
90.0
  7
CMP-SET
 72
     1
 11
171.5405429991737
 21
203.9139570342161
 31
0.0
100
AcDbText
  0
LINE
  5
3E3D
330
3D94
100
AcDbEntity
  8
SUNPOUN
100
AcDbLine
 10
157.2488403368422
 20
195.913957034216
 30
0.0
 11
174.4655429991736
 21
195.913957034216
 31
0.0
  0
ARC
  5
3E3E
330
3D94
100
AcDbEntity
  8
0
100
AcDbCircle
 10
154.7488403368422
 20
196.4139570342161
 30
0.0
 40
0.5
100
AcDbArc
 50
270.0
 51
0.0
  0
ARC
  5
3E3F
330
3D94
100
AcDbEntity
  8
0
100
AcDbCircle
 10
154.7488403368422
 20
196.4139570342161
 30
0.0
 40
2.5
100
AcDbArc
 50
270.0
 51
0.0
  0
LINE
  5
3E40
330
3D94
100
AcDbEntity
  8
0
100
AcDbLine
 10
157.2488403368422
 20
198.9139570342161
 30
0.0
 11
155.2488403368422
 21
198.9139570342161
 31
0.0
  0
LINE
  5
3E41
330
3D94
100
AcDbEntity
  8
0
100
AcDbLine
 10
155.2488403368422
 20
198.9139570342161
 30
0.0
 11
155.2488403368422
 21
196.4139570342161
 31
0.0
  0
LINE
  5
3E42
330
3D94
100
AcDbEntity
  8
0
100
AcDbLine
 10
157.2488403368422
 20
196.4139570342161
 30
0.0
 11
157.2488403368422
 21
198.9139570342161
 31
0.0
  0
INSERT
  5
3E43
330
3D94
100
AcDbEntity
  8
SUNPOU
100
AcDbBlockReference
  2
YAN2
 10
172.7905429991736
 20
195.9139570342161
 30
0.0
 41
3.75
 42
3.75
 43
3.75
 50
269.9999999999996
  0
LINE
  5
3E44
330
3D94
100
AcDbEntity
  8
SUNPOUN
100
AcDbLine
 10
157.2488403368423
 20
211.913957034216
 30
0.0
 11
174.4655429991736
 21
211.9139570342161
 31
0.0
  0
LINE
  5
3E45
330
3D94
100
AcDbEntity
  8
SCALE
100
AcDbLine
 10
155.384434757658
 20
212.8069493665465
 30
0.0
 11
159.3046788210509
 21
225.8221391171046
 31
0.0
  0
ARC
  5
3E46
330
3D94
100
AcDbEntity
  8
0
100
AcDbCircle
 10
154.7488403368422
 20
211.4139570342161
 30
0.0
 40
2.5
100
AcDbArc
 50
0.0
 51
90.0
  0
LINE
  5
3E47
330
3D94
100
AcDbEntity
  8
0
100
AcDbLine
 10
155.2488403368422
 20
208.9139570342161
 30
0.0
 11
157.2488403368422
 21
208.9139570342161
 31
0.0
  0
ARC
  5
3E48
330
3D94
100
AcDbEntity
  8
0
100
AcDbCircle
 10
154.7488403368422
 20
211.4139570342161
 30
0.0
 40
0.5
100
AcDbArc
 50
0.0
 51
90.0
  0
LINE
  5
3E49
330
3D94
100
AcDbEntity
  8
0
100
AcDbLine
 10
155.2488403368422
 20
211.4139570342161
 30
0.0
 11
155.2488403368422
 21
208.9139570342161
 31
0.0
  0
LINE
  5
3E4A
330
3D94
100
AcDbEntity
  8
0
100
AcDbLine
 10
157.2488403368422
 20
208.9139570342161
 30
0.0
 11
157.2488403368422
 21
211.4139570342161
 31
0.0
  0
INSERT
  5
3E4B
330
3D94
100
AcDbEntity
  8
SUNPOU
100
AcDbBlockReference
  2
YAN2
 10
172.7905429991738
 20
211.913957034216
 30
0.0
 41
3.75
 42
3.75
 43
3.75
 50
89.9999999999996
  0
LINE
  5
3E4C
330
3D94
100
AcDbEntity
  8
SCALE
100
AcDbLine
 10
106.9723031071552
 20
231.2991846378267
 30
0.0
 11
85.31007212450981
 21
231.2991846378267
 31
0.0
  0
TEXT
  5
3E4D
330
3D94
100
AcDbEntity
  8
SCALE
100
AcDbText
 10
86.59279904231118
 20
231.8901290229572
 30
0.0
 40
2.5
  1
φ10.5貫通穴
  7
CMP-SET
100
AcDbText
  0
ARC
  5
3E4E
330
3D94
100
AcDbEntity
  8
SUNPOU
100
AcDbCircle
 10
239.5082704831897
 20
134.9139570342161
 30
0.0
 40
14.2365140770257
100
AcDbArc
 50
149.999999999999
 51
179.9999999999999
  0
INSERT
  5
3E4F
330
3D94
100
AcDbEntity
  8
SUNPOU
100
AcDbBlockReference
  2
YAN2
 10
227.1790876311508
 20
142.0322140727291
 30
0.0
 41
3.75
 42
3.75
 43
3.75
 50
59.999999999999
  0
ARC
  5
3E50
330
3D94
100
AcDbEntity
  8
SUNPOU
100
AcDbCircle
 10
261.6518640226423
 20
134.9139570342161
 30
0.0
 40
14.23651407702578
100
AcDbArc
 50
0.0000000000000891
 51
30.00000000000096
  0
INSERT
  5
3E51
330
3D94
100
AcDbEntity
  8
SUNPOU
100
AcDbBlockReference
  2
YAN2
 10
273.9810468746813
 20
142.0322140727291
 30
0.0
 41
3.75
 42
3.75
 43
3.75
 50
120.0000000000008
  0
LINE
  5
3E52
330
3D94
100
AcDbEntity
  8
SCALE
100
AcDbLine
 10
259.8019178527682
 20
140.2950921615547
 30
0.0
 11
258.6710439403983
 21
142.2353927979361
 31
0.0
  0
LINE
  5
3E53
330
3D94
100
AcDbEntity
  8
SCALE
100
AcDbLine
 10
241.3582166530639
 20
140.2950921615547
 30
0.0
 11
242.4890905654337
 21
142.2353927979361
 31
0.0
  0
LINE
  5
3E54
330
3D94
100
AcDbEntity
  8
SCALE
100
AcDbLine
 10
231.7938898576106
 20
139.3678567650256
 30
0.0
 11
225.663543174528
 21
142.9072140727291
 31
0.0
  0
LINE
  5
3E55
330
3D94
100
AcDbEntity
  8
SCALE
100
AcDbLine
 10
269.3662446482215
 20
139.3678567650256
 30
0.0
 11
275.4965913313041
 21
142.9072140727291
 31
0.0
  0
ARC
  5
3E56
330
3D94
100
AcDbEntity
  8
0
100
AcDbCircle
 10
317.0942812506287
 20
140.5741045640617
 30
0.0
 40
7.5
100
AcDbArc
 50
0.0
 51
90.0
  0
ARC
  5
3E57
330
3D94
100
AcDbEntity
  8
0
100
AcDbCircle
 10
311.5942812506288
 20
140.5741045640617
 30
0.0
 40
7.5
100
AcDbArc
 50
90.0
 51
179.9999999999999
  0
LINE
  5
3E58
330
3D94
100
AcDbEntity
  8
CENTER
100
AcDbLine
 10
250.580067252916
 20
144.7731303034179
 30
0.0
 11
250.580067252916
 21
129.9990553562631
 31
0.0
  0
LINE
  5
3E59
330
3D94
100
AcDbEntity
  8
0
100
AcDbLine
 10
239.9999402339939
 20
139.248893524755
 30
0.0
 11
235.5800672529164
 21
141.800708380164
 31
0.0
  0
LINE
  5
3E5A
330
3D94
100
AcDbEntity
  8
0
100
AcDbLine
 10
233.5800672529161
 20
138.3366067650258
 30
0.0
 11
235.5800672529161
 21
141.8007083801635
 31
0.0
  0
LINE
  5
3E5B
330
3D94
100
AcDbEntity
  8
0
100
AcDbLine
 10
267.580067252916
 20
138.3366067650258
 30
0.0
 11
265.580067252916
 21
141.8007083801635
 31
0.0
  0
LINE
  5
3E5C
330
3D94
100
AcDbEntity
  8
0
100
AcDbLine
 10
261.1601942718382
 20
139.248893524755
 30
0.0
 11
265.5800672529157
 21
141.800708380164
 31
0.0
  0
LINE
  5
3E5D
330
3D94
100
AcDbEntity
  8
SCALE
100
AcDbLine
 10
305.5284069095974
 20
116.6649033605288
 30
0.0
 11
322.5464348486237
 21
116.6649033605288
 31
0.0
  0
TEXT
  5
3E5E
330
3D94
100
AcDbEntity
  8
SCALE
100
AcDbText
 10
292.2166670301817
 20
53.80452291547953
 30
0.0
 40
3.5
  1
吊ナット A
  7
CMP-SET
 72
     1
 11
303.000000363515
 21
53.80452291547953
 31
0.0
100
AcDbText
  0
TEXT
  5
3E5F
330
3D94
100
AcDbEntity
  8
SCALE
100
AcDbText
 10
292.3833336968483
 20
43.94131104952072
 30
0.0
 40
3.5
  1
吊ガイド B
  7
CMP-SET
 72
     1
 11
303.000000363515
 21
43.94131104952072
 31
0.0
100
AcDbText
  0
LINE
  5
3E60
330
3D94
100
AcDbEntity
  8
SCALE
100
AcDbLine
 10
278.000000363515
 20
62.73548794020024
 30
0.0
 11
388.000000363515
 21
62.73548794020024
 31
0.0
  0
LINE
  5
3E61
330
3D94
100
AcDbEntity
  8
SCALE
100
AcDbLine
 10
305.5284069095974
 20
117.6649033605288
 30
0.0
 11
322.5464348486237
 21
117.6649033605288
 31
0.0
  0
TEXT
  5
3E62
330
3D94
100
AcDbEntity
  8
SCALE
100
AcDbText
 10
307.2257751449963
 20
118.4432203555788
 30
0.0
 40
3.5
  1
X 視 図
  7
CMP-SET
100
AcDbText
  0
ARC
  5
3E63
330
3D94
100
AcDbEntity
  8
0
100
AcDbCircle
 10
314.024605367091
 20
142.7829622924947
 30
0.0
 40
5.225732754515431
100
AcDbArc
 50
245.040554280414
 51
294.9594457195859
  0
LINE
  5
3E64
330
3D94
100
AcDbEntity
  8
SCALE
100
AcDbLine
 10
291.000000363515
 20
52.73548794020024
 30
0.0
 11
291.000000363515
 21
62.73548794020024
 31
0.0
  0
LINE
  5
3E65
330
3D94
100
AcDbEntity
  8
SCALE
100
AcDbLine
 10
278.000000363515
 20
52.73548794020024
 30
0.0
 11
278.000000363515
 21
62.73548794020024
 31
0.0
  0
LINE
  5
3E66
330
3D94
100
AcDbEntity
  8
SUNPOU
100
AcDbLine
 10
193.000000363515
 20
13.99999993434227
 30
0.0
 11
278.000000363515
 21
13.99999993434227
 31
0.0
  0
LINE
  5
3E67
330
3D94
100
AcDbEntity
  8
SUNPOU
100
AcDbLine
 10
193.000000363515
 20
6.99999993434227
 30
0.0
 11
278.000000363515
 21
6.99999993434227
 31
0.0
  0
TEXT
  5
3E68
330
3D94
100
AcDbEntity
  8
SUNPOU
100
AcDbText
 10
228.200000363515
 20
0.99999993434227
 30
0.0
 40
3.0
  1
内          容
  7
CMP-SET
 72
     1
 11
240.500000363515
 21
0.99999993434227
 31
0.0
100
AcDbText
  0
TEXT
  5
3E69
330
3D94
100
AcDbEntity
  8
SUNPOU
100
AcDbText
 10
224.000000363515
 20
7.99999993434227
 30
0.0
 40
3.0
  1
クロメート→ユニクロメッキ
 41
0.7205240174672491
  7
CMP-SET
 72
     5
 11
257.000000363515
 21
7.99999993434227
 31
0.0
100
AcDbText
  0
LINE
  5
3E6A
330
3D94
100
AcDbEntity
  8
SUNPOU
100
AcDbLine
 10
193.000000363515
 20
-0.0000000656577299
 30
0.0
 11
193.000000363515
 21
13.99999993434227
 31
0.0
  0
LINE
  5
3E6B
330
3D94
100
AcDbEntity
  8
SUNPOU
100
AcDbLine
 10
203.000000363515
 20
-0.0000000656577299
 30
0.0
 11
203.000000363515
 21
13.99999993434227
 31
0.0
  0
LINE
  5
3E6C
330
3D94
100
AcDbEntity
  8
SUNPOU
100
AcDbLine
 10
223.000000363515
 20
-0.0000000656577299
 30
0.0
 11
223.000000363515
 21
13.99999993434227
 31
0.0
  0
TEXT
  5
3E6D
330
3D94
100
AcDbEntity
  8
SUNPOU
100
AcDbText
 10
204.000000363515
 20
7.99999993434227
 30
0.0
 40
3.0
  1
95.11.30
  7
CMP-SET
 72
     1
 11
213.000000363515
 21
7.99999993434227
 31
0.0
100
AcDbText
  0
LWPOLYLINE
  5
3E6E
330
3D94
100
AcDbEntity
  8
SUNPOU
100
AcDbPolyline
 90
        4
 70
     0
 43
0.0
 10
195.500000363515
 20
7.99999993434227
 10
200.500000363515
 20
7.99999993434227
 10
198.000000363515
 20
12.33012695326448
 10
195.500000363515
 20
7.99999993434227
  0
TEXT
  5
3E6F
330
3D94
100
AcDbEntity
  8
SUNPOU
100
AcDbText
 10
197.5619051254197
 20
8.49999993434227
 30
0.0
 40
2.0
  1
1
  7
CMP-SET
 72
     1
 11
197.800000363515
 21
8.49999993434227
 31
0.0
100
AcDbText
  0
TEXT
  5
3E70
330
3D94
100
AcDbEntity
  8
SUNPOU
100
AcDbText
 10
205.100000363515
 20
0.99999993434227
 30
0.0
 40
3.0
  1
日     付
  7
CMP-SET
 72
     1
 11
213.000000363515
 21
0.99999993434227
 31
0.0
100
AcDbText
  0
TEXT
  5
3E71
330
3D94
100
AcDbEntity
  8
SUNPOU
100
AcDbText
 10
194.800000363515
 20
0.99999993434227
 30
0.0
 40
3.0
  1
符号
  7
CMP-SET
 72
     1
 11
198.000000363515
 21
0.99999993434227
 31
0.0
100
AcDbText
  0
LINE
  5
3E72
330
3D94
100
AcDbEntity
  8
SUNPOU
100
AcDbLine
 10
258.000000363515
 20
-0.0000000656577299
 30
0.0
 11
258.000000363515
 21
13.99999993434227
 31
0.0
  0
LINE
  5
3E73
330
3D94
100
AcDbEntity
  8
SUNPOU
100
AcDbLine
 10
268.000000363515
 20
-0.0000000656577299
 30
0.0
 11
268.000000363515
 21
13.99999993434227
 31
0.0
  0
TEXT
  5
3E74
330
3D94
100
AcDbEntity
  8
SUNPOU
100
AcDbText
 10
259.800000363515
 20
7.99999993434227
 30
0.0
 40
3.0
  1
竹永
  7
CMP-SET
 72
     1
 11
263.000000363515
 21
7.99999993434227
 31
0.0
100
AcDbText
  0
TEXT
  5
3E75
330
3D94
100
AcDbEntity
  8
SCALE
100
AcDbText
 10
284.9404765539912
 20
9.49999993434227
 30
0.0
 40
2.5
  1
1/1
  7
CMP-SET
 72
     1
 11
287.500000363515
 21
9.49999993434227
 31
0.0
100
AcDbText
  0
TEXT
  5
3E76
330
3D94
100
AcDbEntity
  8
SUNPOU
100
AcDbText
 10
259.900000363515
 20
0.99999993434227
 30
0.0
 40
3.0
  1
担当
  7
CMP-SET
 72
     1
 11
263.000000363515
 21
0.99999993434227
 31
0.0
100
AcDbText
  0
TEXT
  5
3E77
330
3D94
100
AcDbEntity
  8
SUNPOU
100
AcDbText
 10
269.800000363515
 20
0.99999993434227
 30
0.0
 40
3.0
  1
承認
  7
CMP-SET
 72
     1
 11
273.000000363515
 21
0.99999993434227
 31
0.0
100
AcDbText
  0
TEXT
  5
3E78
330
3D94
100
AcDbEntity
  8
SCALE
100
AcDbText
 10
278.852381315896
 20
15.49999993434227
 30
0.0
 40
2.0
  1
90.11. 8
  7
CMP-SET
 72
     1
 11
284.500000363515
 21
15.49999993434227
 31
0.0
100
AcDbText
  0
TEXT
  5
3E79
330
3D94
100
AcDbEntity
  8
SCALE
100
AcDbText
 10
291.8523813158959
 20
15.49999993434233
 30
0.0
 40
2.0
  1
90.11. 8
  7
CMP-SET
 72
     1
 11
297.500000363515
 21
15.49999993434233
 31
0.0
100
AcDbText
  0
TEXT
  5
3E7A
330
3D94
100
AcDbEntity
  8
SCALE
100
AcDbText
 10
294.300000363515
 20
22.40505395375033
 30
0.0
 40
3.0
  1
竹永
  7
CMP-SET
 72
     1
 11
297.500000363515
 21
22.40505395375033
 31
0.0
100
AcDbText
  0
TEXT
  5
3E7B
330
3D94
100
AcDbEntity
  8
SCALE
100
AcDbText
 10
281.3000003635151
 20
22.40505395375027
 30
0.0
 40
3.0
  1
竹永
  7
CMP-SET
 72
     1
 11
284.500000363515
 21
22.40505395375027
 31
0.0
100
AcDbText
  0
TEXT
  5
3E7C
330
3D94
100
AcDbEntity
  8
SCALE
100
AcDbText
 10
280.7666670301817
 20
34.00906420828261
 30
0.0
 40
3.5
  1
番号
  7
CMP-SET
 72
     1
 11
284.500000363515
 21
34.00906420828261
 31
0.0
100
AcDbText
  0
TEXT
  5
3E7D
330
3D94
100
AcDbEntity
  8
SCALE
100
AcDbText
 10
283.7641605702334
 20
43.94131104952072
 30
0.0
 40
3.5
  1
1
  7
CMP-SET
 72
     1
 11
284.1808272369
 21
43.94131104952072
 31
0.0
100
AcDbText
  0
LINE
  5
3E7E
330
3D94
100
AcDbEntity
  8
SCALE
100
AcDbLine
 10
206.217893623786
 20
86.2727845601794
 30
0.0
 11
256.2442434180389
 21
86.2727845601794
 31
0.0
  0
TEXT
  5
3E7F
330
3D94
100
AcDbEntity
  8
SCALE
100
AcDbText
 10
206.5782101737302
 20
87.33936710895161
 30
0.0
 40
3.5
  1
※ 組立仕様ハ，別紙参照．
  7
CMP-SET
100
AcDbText
  0
DIMENSION
  5
3E80
330
3D94
100
AcDbEntity
  8
SCALE
100
AcDbDimension
280
     0
  2
*D20
 10
267.5800672529161
 20
123.1165679242481
 30
0.0
 11
250.580067252916
 21
125.6165679242481
 31
0.0
 12
-24.49999963648497
 22
-9.500000065657729
 32
0.0
  1
34
 71
     5
 42
-1.0
 73
     0
 74
     0
 75
     0
100
AcDbAlignedDimension
 13
233.580067252916
 23
136.3366067650256
 33
0.0
 14
267.5800672529161
 24
136.3366067650256
 34
0.0
100
AcDbRotatedDimension
  0
LINE
  5
3E81
330
3D94
100
AcDbEntity
  8
0
100
AcDbLine
 10
240.7140418491303
 20
134.9139570342161
 30
0.0
 11
260.4460926567019
 21
134.9139570342161
 31
0.0
  0
LINE
  5
3E82
330
3D94
100
AcDbEntity
  8
0
100
AcDbLine
 10
241.2499402339939
 20
138.9139570342161
 30
0.0
 11
259.9101942718383
 21
138.9139570342161
 31
0.0
  0
LINE
  5
3E83
330
3D94
100
AcDbEntity
  8
SCALE
100
AcDbLine
 10
235.6380830020823
 20
136.1283120764368
 30
0.0
 11
229.6025705314916
 21
125.6744978276581
 31
0.0
  0
LINE
  5
3E84
330
3D94
100
AcDbEntity
  8
SCALE
100
AcDbLine
 10
237.417360608102
 20
134.9139570342161
 30
0.0
 11
223.2064758783027
 21
134.9139570342161
 31
0.0
  0
TEXT
  5
3E85
330
3D94
100
AcDbEntity
  8
SCALE
100
AcDbText
 10
226.154551407551
 20
120.4899057870065
 30
0.0
 40
3.5
  1
X
  7
CMP-SET
100
AcDbText
  0
TEXT
  5
3E86
330
3D94
100
AcDbEntity
  8
SUNPOUA
100
AcDbText
 10
219.6063240661124
 20
137.8438255434693
 30
0.0
 40
2.5
  1
30%%d
 50
0.0826098035629031
  7
CMP-SET
 72
     1
 11
222.2253689628897
 21
137.8476017192401
 31
0.0
100
AcDbText
  0
INSERT
  5
3E87
330
3D94
100
AcDbEntity
  8
SUNPOU
100
AcDbBlockReference
  2
YAN2
 10
225.271756406164
 20
134.9139570342161
 30
0.0
 41
3.75
 42
3.75
 43
3.75
 50
269.9999999999998
  0
ARC
  5
3E88
330
3D94
100
AcDbEntity
  8
0
100
AcDbCircle
 10
240.7140418491303
 20
139.4139570342161
 30
0.0
 40
4.5
100
AcDbArc
 50
240.0000000000007
 51
270.0
  0
ARC
  5
3E89
330
3D94
100
AcDbEntity
  8
0
100
AcDbCircle
 10
241.2499402339939
 20
141.4139570342161
 30
0.0
 40
2.5
100
AcDbArc
 50
239.9999999999999
 51
269.9999999999999
  0
LINE
  5
3E8A
330
3D94
100
AcDbEntity
  8
SCALE
100
AcDbLine
 10
235.6380830020823
 20
136.1283120764368
 30
0.0
 11
232.9140898845042
 21
134.5860913640229
 31
0.0
  0
LINE
  5
3E8B
330
3D94
100
AcDbEntity
  8
0
100
AcDbLine
 10
240.080067252916
 20
139.204568610208
 30
0.0
 11
239.0191914731078
 21
135.2453262994445
 31
0.0
  0
LINE
  5
3E8C
330
3D94
100
AcDbEntity
  8
SCALE
100
AcDbLine
 10
232.9140898845042
 20
134.5860913640229
 30
0.0
 11
235.262704251246
 21
133.2301182271619
 31
0.0
  0
LINE
  5
3E8D
330
3D94
100
AcDbEntity
  8
0
100
AcDbLine
 10
233.580067252916
 20
138.3366067650256
 30
0.0
 11
238.4640418491303
 21
135.5168427171861
 31
0.0
  0
LINE
  5
3E8E
330
3D94
100
AcDbEntity
  8
0
100
AcDbLine
 10
247.080067252916
 20
138.9139570342161
 30
0.0
 11
247.080067252916
 21
134.9139570342161
 31
0.0
  0
INSERT
  5
3E8F
330
3D94
100
AcDbEntity
  8
SCALE
100
AcDbBlockReference
  2
YAZ3
 10
240.6028926212376
 20
138.9991424684934
 30
0.0
 41
1.5
 42
1.5
 43
1.5
 50
239.7648974490138
  0
TEXT
  5
3E90
330
3D94
100
AcDbEntity
  8
SCALE
100
AcDbText
 10
283.3333336968483
 20
53.80452291547953
 30
0.0
 40
3.5
  1
2
  7
CMP-SET
 72
     1
 11
284.500000363515
 21
53.80452291547953
 31
0.0
100
AcDbText
  0
TEXT
  5
3E91
330
3D94
100
AcDbEntity
  8
SUNPOUA
100
AcDbText
 10
276.670234488163
 20
137.8438255434693
 30
0.0
 40
2.5
  1
30%%d
 50
0.0826098035629031
  7
CMP-SET
 72
     1
 11
279.2892793849404
 21
137.8476017192401
 31
0.0
100
AcDbText
  0
LINE
  5
3E92
330
3D94
100
AcDbEntity
  8
SCALE
100
AcDbLine
 10
263.74277389773
 20
134.9139570342161
 30
0.0
 11
277.9536586275293
 21
134.9139570342161
 31
0.0
  0
LINE
  5
3E93
330
3D94
100
AcDbEntity
  8
0
100
AcDbLine
 10
267.580067252916
 20
138.3366067650256
 30
0.0
 11
262.6960926567018
 21
135.5168427171861
 31
0.0
  0
TEXT
  5
3E94
330
3D94
100
AcDbEntity
  8
SCALE
100
AcDbText
 10
252.0252796935446
 20
127.1200135226175
 30
0.0
 40
1.5
  1
＋0
  7
CMP-SET
100
AcDbText
  0
ARC
  5
3E95
330
3D94
100
AcDbEntity
  8
0
100
AcDbCircle
 10
260.4460926567019
 20
139.4139570342161
 30
0.0
 40
4.5
100
AcDbArc
 50
270.0
 51
299.9999999999993
  0
INSERT
  5
3E96
330
3D94
100
AcDbEntity
  8
SCALE
100
AcDbBlockReference
  2
YAZ3
 10
260.5572418845944
 20
138.9991424684934
 30
0.0
 41
-1.5
 42
1.5
 43
1.5
 50
120.2351025509862
  0
ARC
  5
3E97
330
3D94
100
AcDbEntity
  8
0
100
AcDbCircle
 10
259.9101942718383
 20
141.4139570342161
 30
0.0
 40
2.5
100
AcDbArc
 50
270.0
 51
300.0
  0
INSERT
  5
3E98
330
3D94
100
AcDbEntity
  8
SUNPOU
100
AcDbBlockReference
  2
YAN2
 10
275.8883780996681
 20
134.9139570342161
 30
0.0
 41
3.75
 42
3.75
 43
3.75
 50
270.0
  0
ARC
  5
3E99
330
3D94
100
AcDbEntity
  8
0
100
AcDbCircle
 10
306.4613179621417
 20
144.5359861883813
 30
0.0
 40
6.881771350485899
100
AcDbArc
 50
249.8818307160546
 51
291.4702770825735
  0
LINE
  5
3E9A
330
3D94
100
AcDbEntity
  8
0
100
AcDbLine
 10
304.0942812506288
 20
138.0741045640617
 30
0.0
 11
304.0942812506288
 21
140.5741045640617
 31
0.0
  0
ARC
  5
3E9B
330
3D94
100
AcDbEntity
  8
0
100
AcDbCircle
 10
310.2990070115368
 20
134.7786040642458
 30
0.0
 40
3.603187550541332
100
AcDbArc
 50
65.04055428041406
 51
111.4702770825736
  0
LINE
  5
3E9C
330
3D94
100
AcDbEntity
  8
SCALE
100
AcDbLine
 10
363.0000003635151
 20
52.73548794020025
 30
0.0
 11
363.0000003635151
 21
62.73548794020025
 31
0.0
  0
LINE
  5
3E9D
330
3D94
100
AcDbEntity
  8
SCALE
100
AcDbLine
 10
315.000000363515
 20
52.73548794020024
 30
0.0
 11
315.0000003635151
 21
62.73548794020024
 31
0.0
  0
LINE
  5
3E9E
330
3D94
100
AcDbEntity
  8
SCALE
100
AcDbLine
 10
339.000000363515
 20
52.73548794020024
 30
0.0
 11
339.000000363515
 21
62.73548794020024
 31
0.0
  0
TEXT
  5
3E9F
330
3D94
100
AcDbEntity
  8
SCALE
100
AcDbText
 10
364.500000363515
 20
43.94131104952071
 30
0.0
 40
3.5
  1
ユニクロメッキ
 41
0.7792207792207792
  7
CMP-SET
 72
     5
 11
386.500000363515
 21
43.94131104952071
 31
0.0
100
AcDbText
  0
TEXT
  5
3EA0
330
3D94
100
AcDbEntity
  8
SCALE
100
AcDbText
 10
340.000000363515
 20
8.99999993434227
 30
0.0
 40
3.5
  1
RD-901108-SC012
 41
0.9292929292929301
  7
CMP-SET
 72
     5
 11
386.000000363515
 21
8.99999993434227
 31
0.0
100
AcDbText
  0
TEXT
  5
3EA1
330
3D94
100
AcDbEntity
  8
SCALE
100
AcDbText
 10
341.3290959707519
 20
25.90505395375027
 30
0.0
 40
3.5
  1
チャンネルクロスアタッチメント
 41
0.692394174045964
  7
CMP-SET
 72
     5
 11
383.8190184513725
 21
25.90505395375027
 31
0.0
100
AcDbText
  0
TEXT
  5
3EA2
330
3D94
100
AcDbEntity
  8
SCALE
100
AcDbText
 10
322.3333336968484
 20
43.94131104952072
 30
0.0
 40
3.5
  1
SPC
  7
CMP-SET
 72
     1
 11
327.000000363515
 21
43.94131104952072
 31
0.0
100
AcDbText
  0
TEXT
  5
3EA3
330
3D94
100
AcDbEntity
  8
SCALE
100
AcDbText
 10
350.800000363515
 20
18.90505395375027
 30
0.0
 40
3.5
  1
（SCX-1）
  7
CMP-SET
 72
     1
 11
363.000000363515
 21
18.90505395375027
 31
0.0
100
AcDbText
  0
LINE
  5
3EA4
330
3D94
100
AcDbEntity
  8
SCALE
100
AcDbLine
 10
345.000000363515
 20
45.55962729196731
 30
0.0
 11
357.000000363515
 21
45.55962729196731
 31
0.0
  0
LWPOLYLINE
  5
3EA5
330
3D94
100
AcDbEntity
  8
SUNPOU
100
AcDbPolyline
 90
        4
 70
     0
 43
0.0
 10
364.5000003635151
 20
48.27138632506247
 10
368.5000003635151
 20
48.27138632506247
 10
366.5000003635151
 20
51.73548794020025
 10
364.5000003635151
 20
48.27138632506247
  0
TEXT
  5
3EA6
330
3D94
100
AcDbEntity
  8
SUNPOU
100
AcDbText
 10
366.1495241730388
 20
48.67138632506247
 30
0.0
 40
1.6
  1
1
  7
CMP-SET
 72
     1
 11
366.3400003635151
 21
48.67138632506247
 31
0.0
100
AcDbText
  0
TEXT
  5
3EA7
330
3D94
100
AcDbEntity
  8
SCALE
100
AcDbText
 10
364.500000363515
 20
53.73548794020024
 30
0.0
 40
3.5
  1
ユニクロメッキ
 41
0.7792207792207792
  7
CMP-SET
 72
     5
 11
386.500000363515
 21
53.73548794020024
 31
0.0
100
AcDbText
  0
TEXT
  5
3EA8
330
3D94
100
AcDbEntity
  8
SCALE
100
AcDbText
 10
322.3333336968484
 20
53.80452291547953
 30
0.0
 40
3.5
  1
SPC
  7
CMP-SET
 72
     1
 11
327.000000363515
 21
53.80452291547953
 31
0.0
100
AcDbText
  0
LINE
  5
3EA9
330
3D94
100
AcDbEntity
  8
SCALE
100
AcDbLine
 10
345.000000363515
 20
55.42283915792612
 30
0.0
 11
357.000000363515
 21
55.42283915792612
 31
0.0
  0
LWPOLYLINE
  5
3EAA
330
3D94
100
AcDbEntity
  8
SUNPOU
100
AcDbPolyline
 90
        4
 70
     0
 43
0.0
 10
364.5000003635151
 20
58.27138632506247
 10
368.5000003635151
 20
58.27138632506247
 10
366.5000003635151
 20
61.73548794020025
 10
364.5000003635151
 20
58.27138632506247
  0
TEXT
  5
3EAB
330
3D94
100
AcDbEntity
  8
SUNPOU
100
AcDbText
 10
366.1495241730388
 20
58.67138632506248
 30
0.0
 40
1.6
  1
1
  7
CMP-SET
 72
     1
 11
366.3400003635151
 21
58.67138632506248
 31
0.0
100
AcDbText
  0
ARC
  5
3EAC
330
3D94
100
AcDbEntity
  8
0
100
AcDbCircle
 10
321.6460812650312
 20
141.5934170697859
 30
0.0
 40
4.221648802771496
100
AcDbArc
 50
240.5972304003794
 51
298.5957656580592
  0
ARC
  5
3EAD
330
3D94
100
AcDbEntity
  8
0
100
AcDbCircle
 10
317.7753055977615
 20
134.724673290862
 30
0.0
 40
3.66267395614905
100
AcDbArc
 50
60.59723040037929
 51
114.9594457195862
  0
ARC
  5
3EAE
330
3D94
100
AcDbEntity
  8
0
100
AcDbCircle
 10
324.4335814682798
 20
136.4798808971063
 30
0.0
 40
1.602302568283497
100
AcDbArc
 50
84.24395520808296
 51
118.5957656580603
  0
LINE
  5
3EAF
330
3D94
100
AcDbEntity
  8
0
100
AcDbLine
 10
324.5942812506287
 20
140.5741045640617
 30
0.0
 11
324.5942812506288
 21
138.0741045640617
 31
0.0
  0
LINE
  5
3EB0
330
3D94
100
AcDbEntity
  8
0
100
AcDbLine
 10
306.1120539303163
 20
141.2288045640617
 30
0.0
 11
322.9028051577161
 21
141.2288045640617
 31
0.0
  0
LINE
  5
3EB1
330
3D94
100
AcDbEntity
  8
0
100
AcDbLine
 10
311.5942812506288
 20
148.0741045640618
 30
0.0
 11
317.0942812506287
 21
148.0741045640618
 31
0.0
  0
LINE
  5
3EB2
330
3D94
100
AcDbEntity
  8
CENTER
100
AcDbLine
 10
307.9138336459283
 20
203.9139570342161
 30
0.0
 11
324.6389152358477
 21
203.9139570342161
 31
0.0
  0
LINE
  5
3EB3
330
3D94
100
AcDbEntity
  8
SUNPOUN
100
AcDbLine
 10
251.580067252916
 20
211.6639570342161
 30
0.0
 11
224.4203492007247
 21
211.6639570342161
 31
0.0
  0
TEXT
  5
3EB4
330
3D94
100
AcDbEntity
  8
SCALE
100
AcDbText
 10
241.2301958572164
 20
142.6719401459311
 30
0.0
 40
2.5
  1
R2.5
  7
CMP-SET
100
AcDbText
  0
DIMENSION
  5
3EB5
330
3D94
100
AcDbEntity
  8
SCALE
100
AcDbDimension
280
     0
  2
*D21
 10
260.580067252916
 20
149.6733475030116
 30
0.0
 11
250.580067252916
 21
152.1733475030116
 31
0.0
 12
-24.49999963648497
 22
-5.500000065657729
 32
0.0
  1
20
 71
     5
 42
-1.0
 73
     0
 74
     0
 75
     0
100
AcDbAlignedDimension
 13
240.580067252916
 23
141.0053744242141
 33
0.0
 14
260.580067252916
 24
141.0053744242111
 34
0.0
100
AcDbRotatedDimension
  0
DIMENSION
  5
3EB6
330
3D94
100
AcDbEntity
  8
SCALE
100
AcDbDimension
280
     0
  2
*D18
 10
250.580067252916
 20
223.4693292558991
 30
0.0
 11
243.4610196338684
 21
225.9693292558991
 31
0.0
 12
-24.49999963648497
 22
-5.500000065657729
 32
0.0
  1
3.5
 71
     5
 42
-1.0
 73
     0
 74
     0
 75
     0
100
AcDbAlignedDimension
 13
254.080067252916
 23
216.1639570342161
 33
0.0
 14
250.580067252916
 24
216.1639570342161
 34
0.0
100
AcDbRotatedDimension
  0
DIMENSION
  5
3EB7
330
3D94
100
AcDbEntity
  8
SCALE
100
AcDbDimension
280
     0
  2
*D17
 10
250.580067252916
 20
183.4937881513664
 30
0.0
 11
257.6991148719636
 21
185.9937881513664
 31
0.0
 12
-24.49999963648497
 22
-9.500000065657729
 32
0.0
  1
3.5
 71
     5
 42
-1.0
 73
     0
 74
     0
 75
     0
100
AcDbAlignedDimension
 13
247.080067252916
 23
191.6639570342161
 33
0.0
 14
250.580067252916
 24
191.6639570342161
 34
0.0
100
AcDbRotatedDimension
  0
LINE
  5
3EB8
330
3D94
100
AcDbEntity
  8
CENTER
100
AcDbLine
 10
229.8937108424782
 20
203.9139570342161
 30
0.0
 11
271.4227465406497
 21
203.9139570342161
 31
0.0
  0
LINE
  5
3EB9
330
3D94
100
AcDbEntity
  8
0
100
AcDbLine
 10
238.080067252911
 20
214.1639570342161
 30
0.0
 11
254.080067252916
 21
214.1639570342161
 31
0.0
  0
LINE
  5
3EBA
330
3D94
100
AcDbEntity
  8
0
100
AcDbLine
 10
263.0800672529259
 20
193.663957034216
 30
0.0
 11
247.080067252916
 21
193.663957034216
 31
0.0
  0
CIRCLE
  5
3EBB
330
3D94
100
AcDbEntity
  8
0
100
AcDbCircle
 10
250.580067252916
 20
203.9139570342161
 30
0.0
 40
3.75
  0
CIRCLE
  5
3EBC
330
3D94
100
AcDbEntity
  8
0
100
AcDbCircle
 10
250.580067252916
 20
203.9139570342161
 30
0.0
 40
4.75
  0
TEXT
  5
3EBD
330
3D94
100
AcDbEntity
  8
SCALE
100
AcDbText
 10
242.7972297741213
 20
184.7621565877442
 30
0.0
 40
2.5
  1
7
  7
CMP-SET
100
AcDbText
  0
LINE
  5
3EBE
330
3D94
100
AcDbEntity
  8
SCALE
100
AcDbLine
 10
240.0800672529121
 20
191.6639570342161
 30
0.0
 11
240.0800672529121
 21
181.7641948290331
 31
0.0
  0
INSERT
  5
3EBF
330
3D94
100
AcDbEntity
  8
SCALE
100
AcDbBlockReference
  2
YAZ3
 10
240.0800672529121
 20
183.4937881513664
 30
0.0
 41
1.5
 42
1.5
 43
1.5
 50
180.0
  0
LINE
  5
3EC0
330
3D94
100
AcDbEntity
  8
SCALE
100
AcDbLine
 10
241.5800672529121
 20
183.4937881513664
 30
0.0
 11
244.080067252916
 21
183.4937881513664
 31
0.0
  0
TEXT
  5
3EC1
330
3D94
100
AcDbEntity
  8
SUNPOUA
100
AcDbText
 10
216.9458143170038
 20
200.1044332246909
 30
0.0
 40
2.5
  1
20.5
 50
90.0
  7
CMP-SET
 72
     1
 11
216.9458143170038
 21
203.9139570342147
 31
0.0
100
AcDbText
  0
LINE
  5
3EC2
330
3D94
100
AcDbEntity
  8
SUNPOUN
100
AcDbLine
 10
236.2324034642907
 20
193.6639570342137
 30
0.0
 11
216.5208143170037
 21
193.6639570342136
 31
0.0
  0
TEXT
  5
3EC3
330
3D94
100
AcDbEntity
  8
SUNPOUA
100
AcDbText
 10
224.8453492007247
 20
200.3425284627875
 30
0.0
 40
2.5
  1
15.5
 50
90.0
  7
CMP-SET
 72
     1
 11
224.8453492007247
 21
203.9139570342161
 31
0.0
100
AcDbText
  0
LINE
  5
3EC4
330
3D94
100
AcDbEntity
  8
SUNPOU
100
AcDbLine
 10
226.0953492007247
 20
196.163957034216
 30
0.0
 11
226.0953492007247
 21
211.663957034216
 31
0.0
  0
LINE
  5
3EC5
330
3D94
100
AcDbEntity
  8
SUNPOU
100
AcDbLine
 10
218.1958143170038
 20
193.6639570342136
 30
0.0
 11
218.1958143170037
 21
214.1639570342161
 31
0.0
  0
LINE
  5
3EC6
330
3D94
100
AcDbEntity
  8
0
100
AcDbLine
 10
235.5800672529164
 20
200.5378159046163
 30
0.0
 11
235.5800672529164
 21
207.2900981638159
 31
0.0
  0
LINE
  5
3EC7
330
3D94
100
AcDbEntity
  8
0
100
AcDbLine
 10
240.580067252916
 20
213.2970008078742
 30
0.0
 11
240.580067252916
 21
197.0244103002551
 31
0.0
  0
LINE
  5
3EC8
330
3D94
100
AcDbEntity
  8
0
100
AcDbLine
 10
233.580067252916
 20
200.5378205766472
 30
0.0
 11
233.580067252916
 21
207.2900981638159
 31
0.0
  0
LINE
  5
3EC9
330
3D94
100
AcDbEntity
  8
SUNPOUN
100
AcDbLine
 10
237.5800672529161
 20
196.1639570342159
 30
0.0
 11
224.4203492007248
 21
196.163957034216
 31
0.0
  0
ARC
  5
3ECA
330
3D94
100
AcDbEntity
  8
0
100
AcDbCircle
 10
241.0800672529159
 20
200.5378205766472
 30
0.0
 40
7.5
100
AcDbArc
 50
180.0000356916871
 51
246.4218215217913
  0
INSERT
  5
3ECB
330
3D94
100
AcDbEntity
  8
SUNPOU
100
AcDbBlockReference
  2
YAN2
 10
218.1958143170038
 20
193.6639570342136
 30
0.0
 41
3.75
 42
3.75
 43
3.75
 50
270.0000000000004
  0
INSERT
  5
3ECC
330
3D94
100
AcDbEntity
  8
SUNPOU
100
AcDbBlockReference
  2
YAN2
 10
226.0953492007247
 20
196.163957034216
 30
0.0
 41
3.75
 42
3.75
 43
3.75
 50
270.0
  0
ARC
  5
3ECD
330
3D94
100
AcDbEntity
  8
0
100
AcDbCircle
 10
243.0800672529163
 20
200.5378205766472
 30
0.0
 40
7.5
100
AcDbArc
 50
180.0000356916871
 51
246.4218215217913
  0
LINE
  5
3ECE
330
3D94
100
AcDbEntity
  8
0
100
AcDbLine
 10
240.080067252916
 20
196.1639570342161
 30
0.0
 11
240.080067252916
 21
193.663957034216
 31
0.0
  0
LINE
  5
3ECF
330
3D94
100
AcDbEntity
  8
0
100
AcDbLine
 10
247.080067252916
 20
193.663957034216
 30
0.0
 11
247.080067252916
 21
196.1639570342161
 31
0.0
  0
LINE
  5
3ED0
330
3D94
100
AcDbEntity
  8
0
100
AcDbLine
 10
238.0800672529151
 20
193.6639570342137
 30
0.0
 11
240.0800672529114
 21
193.663957034216
 31
0.0
  0
LINE
  5
3ED1
330
3D94
100
AcDbEntity
  8
0
100
AcDbLine
 10
247.080067252916
 20
196.1639570342161
 30
0.0
 11
240.080067252916
 21
196.1639570342161
 31
0.0
  0
LINE
  5
3ED2
330
3D94
100
AcDbEntity
  8
SUNPOUN
100
AcDbLine
 10
236.3961243945233
 20
214.163957034216
 30
0.0
 11
217.7214344720426
 21
214.1639570342159
 31
0.0
  0
ARC
  5
3ED3
330
3D94
100
AcDbEntity
  8
0
100
AcDbCircle
 10
241.0800672529159
 20
207.2900934917849
 30
0.0
 40
7.5
100
AcDbArc
 50
113.5781784782087
 51
179.9999643083129
  0
INSERT
  5
3ED4
330
3D94
100
AcDbEntity
  8
SUNPOU
100
AcDbBlockReference
  2
YAN2
 10
218.1958143170037
 20
214.1639570342161
 30
0.0
 41
3.75
 42
3.75
 43
3.75
 50
90.0000000000004
  0
TEXT
  5
3ED5
330
3D94
100
AcDbEntity
  8
SCALE
100
AcDbText
 10
221.7596347135413
 20
207.7033302899048
 30
0.0
 40
1.5
  1
＋0
 50
90.0
  7
CMP-SET
100
AcDbText
  0
INSERT
  5
3ED6
330
3D94
100
AcDbEntity
  8
SUNPOU
100
AcDbBlockReference
  2
YAN2
 10
226.0953492007247
 20
211.663957034216
 30
0.0
 41
3.75
 42
3.75
 43
3.75
 50
90.0
  0
ARC
  5
3ED7
330
3D94
100
AcDbEntity
  8
0
100
AcDbCircle
 10
243.0800672529163
 20
207.2900934917849
 30
0.0
 40
7.5
100
AcDbArc
 50
113.5781784782087
 51
179.9999643083129
  0
TEXT
  5
3ED8
330
3D94
100
AcDbEntity
  8
SCALE
100
AcDbText
 10
252.126168327529
 20
142.6719401459311
 30
0.0
 40
2.5
  1
R2.5
  7
CMP-SET
100
AcDbText
  0
LINE
  5
3ED9
330
3D94
100
AcDbEntity
  8
SCALE
100
AcDbLine
 10
271.981046874681
 20
145.4963156878675
 30
0.0
 11
273.9810468746812
 21
142.0322140727292
 31
0.0
  0
LINE
  5
3EDA
330
3D94
100
AcDbEntity
  8
SCALE
100
AcDbLine
 10
267.3662446482211
 20
142.831958380164
 30
0.0
 11
273.4965913313037
 21
146.3713156878675
 31
0.0
  0
INSERT
  5
3EDB
330
3D94
100
AcDbEntity
  8
SCALE
100
AcDbBlockReference
  2
YAZ3
 10
271.9810468746809
 20
145.4963156878675
 30
0.0
 41
1.5
 42
1.5
 43
1.5
 50
300.0
  0
LINE
  5
3EDC
330
3D94
100
AcDbEntity
  8
SCALE
100
AcDbLine
 10
271.9810468746809
 20
145.4963156878676
 30
0.0
 11
270.4810468746809
 21
148.0943918992208
 31
0.0
  0
TEXT
  5
3EDD
330
3D94
100
AcDbEntity
  8
SCALE
100
AcDbText
 10
274.062239888132
 20
145.5690089608394
 30
0.0
 40
2.5
  1
4
 50
300.0
  7
CMP-SET
100
AcDbText
  0
TEXT
  5
3EDE
330
3D94
100
AcDbEntity
  8
SCALE
100
AcDbText
 10
298.1025601004091
 20
149.9794719327893
 30
0.0
 40
2.5
  1
R7.5
  7
CMP-SET
100
AcDbText
  0
LINE
  5
3EDF
330
3D94
100
AcDbEntity
  8
SCALE
100
AcDbLine
 10
305.4034933163117
 20
147.0866889674474
 30
0.0
 11
303.5766738170312
 21
149.5759001575782
 31
0.0
  0
INSERT
  5
3EE0
330
3D94
100
AcDbEntity
  8
SCALE
100
AcDbBlockReference
  2
YAZ3
 10
306.2909803917298
 20
145.8774054229608
 30
0.0
 41
-1.5
 42
1.5
 43
1.5
 50
126.2747569672118
  0
LINE
  5
3EE1
330
3D94
100
AcDbEntity
  8
SCALE
100
AcDbLine
 10
288.4749018859001
 20
188.3187905778441
 30
0.0
 11
262.4600469799287
 21
188.3187905778441
 31
0.0
  0
TEXT
  5
3EE2
330
3D94
100
AcDbEntity
  8
SCALE
100
AcDbText
 10
262.9644901498506
 20
189.2556536274414
 30
0.0
 40
2.5
  1
刻印指定ロゴ(7P)
  7
CMP-SET
100
AcDbText
  0
LINE
  5
3EE3
330
3D94
100
AcDbEntity
  8
SCALE
100
AcDbLine
 10
287.303530023229
 20
223.8042802410491
 30
0.0
 11
268.9562113000703
 21
223.8042802410491
 31
0.0
  0
TEXT
  5
3EE4
330
3D94
100
AcDbEntity
  8
SCALE
100
AcDbText
 10
268.9562113000703
 20
224.5393574030407
 30
0.0
 40
2.5
  1
W3/8タップ
  7
CMP-SET
100
AcDbText
  0
LINE
  5
3EE5
330
3D94
100
AcDbEntity
  8
CENTER
100
AcDbLine
 10
250.580067252916
 20
218.5527273129424
 30
0.0
 11
250.580067252916
 21
190.0258268389429
 31
0.0
  0
LINE
  5
3EE6
330
3D94
100
AcDbEntity
  8
0
100
AcDbLine
 10
267.5800672529161
 20
200.5378205766472
 30
0.0
 11
267.5800672529161
 21
207.2900981638159
 31
0.0
  0
LINE
  5
3EE7
330
3D94
100
AcDbEntity
  8
0
100
AcDbLine
 10
260.580067252916
 20
210.6017178805715
 30
0.0
 11
260.580067252916
 21
194.3291273729523
 31
0.0
  0
LINE
  5
3EE8
330
3D94
100
AcDbEntity
  8
0
100
AcDbLine
 10
265.5800672529157
 20
200.5378159046163
 30
0.0
 11
265.5800672529157
 21
207.2900981638159
 31
0.0
  0
ARC
  5
3EE9
330
3D94
100
AcDbEntity
  8
0
100
AcDbCircle
 10
258.0800672529157
 20
200.5378205766472
 30
0.0
 40
7.5
100
AcDbArc
 50
293.5781784782088
 51
359.9999643083129
  0
ARC
  5
3EEA
330
3D94
100
AcDbEntity
  8
0
100
AcDbCircle
 10
260.0800672529161
 20
200.5378205766472
 30
0.0
 40
7.5
100
AcDbArc
 50
293.5781784782088
 51
359.9999643083129
  0
TEXT
  5
3EEB
330
3D94
100
AcDbEntity
  8
SCALE
100
AcDbText
 10
248.8384120166437
 20
194.7892118143771
 30
0.0
 40
2.5
  1
INABA
  7
SMP-SET
100
AcDbText
  0
LINE
  5
3EEC
330
3D94
100
AcDbEntity
  8
SCALE
100
AcDbLine
 10
262.4600469799287
 20
188.3187905778441
 30
0.0
 11
254.4898448951629
 21
194.2282344291496
 31
0.0
  0
LINE
  5
3EED
330
3D94
100
AcDbEntity
  8
0
100
AcDbLine
 10
263.0800672529169
 20
193.6639570342137
 30
0.0
 11
261.0800672529206
 21
193.663957034216
 31
0.0
  0
LINE
  5
3EEE
330
3D94
100
AcDbEntity
  8
SCALE
100
AcDbLine
 10
268.9562113000703
 20
223.8042802410491
 30
0.0
 11
253.80339817932
 21
207.402887778568
 31
0.0
  0
ARC
  5
3EEF
330
3D94
100
AcDbEntity
  8
0
100
AcDbCircle
 10
258.0800672529157
 20
207.2900934917849
 30
0.0
 40
7.5
100
AcDbArc
 50
0.0000356916870949
 51
66.42182152179131
  0
ARC
  5
3EF0
330
3D94
100
AcDbEntity
  8
0
100
AcDbCircle
 10
260.0800672529161
 20
207.2900934917849
 30
0.0
 40
7.5
100
AcDbArc
 50
0.0000356916870949
 51
66.42182152179131
  0
LINE
  5
3EF1
330
3D94
100
AcDbEntity
  8
SCALE
100
AcDbLine
 10
261.080067252916
 20
216.1639570342161
 30
0.0
 11
261.080067252916
 21
225.2133358559185
 31
0.0
  0
LINE
  5
3EF2
330
3D94
100
AcDbEntity
  8
0
100
AcDbLine
 10
254.080067252916
 20
211.6639570342161
 30
0.0
 11
261.080067252916
 21
211.6639570342161
 31
0.0
  0
LINE
  5
3EF3
330
3D94
100
AcDbEntity
  8
0
100
AcDbLine
 10
254.080067252916
 20
214.1639570342161
 30
0.0
 11
254.080067252916
 21
211.6639570342161
 31
0.0
  0
LINE
  5
3EF4
330
3D94
100
AcDbEntity
  8
0
100
AcDbLine
 10
261.080067252916
 20
211.6639570342161
 30
0.0
 11
261.080067252916
 21
214.1639570342161
 31
0.0
  0
LINE
  5
3EF5
330
3D94
100
AcDbEntity
  8
0
100
AcDbLine
 10
261.080067252923
 20
214.1639570342161
 30
0.0
 11
263.0800672529169
 21
214.1639570342184
 31
0.0
  0
INSERT
  5
3EF6
330
3D94
100
AcDbEntity
  8
SCALE
100
AcDbBlockReference
  2
YAZ3
 10
261.080067252916
 20
223.4693292558991
 30
0.0
 41
1.5
 42
1.5
 43
1.5
  0
LINE
  5
3EF7
330
3D94
100
AcDbEntity
  8
SCALE
100
AcDbLine
 10
259.580067252916
 20
223.4693292558991
 30
0.0
 11
257.080067252916
 21
223.4693292558991
 31
0.0
  0
TEXT
  5
3EF8
330
3D94
100
AcDbEntity
  8
SCALE
100
AcDbText
 10
256.7630992499585
 20
224.7809375253352
 30
0.0
 40
2.5
  1
7
  7
CMP-SET
100
AcDbText
  0
CIRCLE
  5
3EF9
330
3D94
100
AcDbEntity
  8
SCALE
100
AcDbCircle
 10
213.3089233266879
 20
254.3460156579179
 30
0.0
 40
5.0
  0
TEXT
  5
3EFA
330
3D94
100
AcDbEntity
  8
SCALE
100
AcDbText
 10
212.2378409409608
 20
252.4317451998404
 30
0.0
 40
3.5
  1
2
  7
CMP-SET
100
AcDbText
  0
TEXT
  5
3EFB
330
3D94
100
AcDbEntity
  8
SCALE
100
AcDbText
 10
323.6417971604541
 20
149.9794719327893
 30
0.0
 40
2.5
  1
R7.5
  7
CMP-SET
100
AcDbText
  0
INSERT
  5
3EFC
330
3D94
100
AcDbEntity
  8
SCALE
100
AcDbBlockReference
  2
YAZ3
 10
322.3975821095278
 20
145.8774054229608
 30
0.0
 41
1.5
 42
1.5
 43
1.5
 50
233.7252430327882
  0
LINE
  5
3EFD
330
3D94
100
AcDbEntity
  8
SCALE
100
AcDbLine
 10
323.2850691849459
 20
147.0866889674474
 30
0.0
 11
325.1118886842264
 21
149.5759001575782
 31
0.0
  0
LINE
  5
3EFE
330
3D94
100
AcDbEntity
  8
0
100
AcDbLine
 10
316.1574175221065
 20
214.1639570342162
 30
0.0
 11
316.1574175221065
 21
203.9139570342161
 31
0.0
  0
LINE
  5
3EFF
330
3D94
100
AcDbEntity
  8
0
100
AcDbLine
 10
319.5800672529162
 20
193.663957034216
 30
0.0
 11
319.5800672529162
 21
214.1639570342161
 31
0.0
  0
LINE
  5
3F00
330
3D94
100
AcDbEntity
  8
0
100
AcDbLine
 10
312.6933159069682
 20
214.1639570342161
 30
0.0
 11
312.6933159069682
 21
193.663957034216
 31
0.0
  0
INSERT
  5
3F01
330
3D94
100
AcDbEntity
  8
SCALE
100
AcDbBlockReference
  2
*X19
 10
-24.49999963648497
 20
-7.500000065657729
 30
0.0
  0
LINE
  5
3F02
330
3D94
100
AcDbEntity
  8
0
100
AcDbLine
 10
315.580067252916
 20
203.9139570342161
 30
0.0
 11
315.580067252916
 21
193.663957034216
 31
0.0
  0
LINE
  5
3F03
330
3D94
100
AcDbEntity
  8
0
100
AcDbLine
 10
312.6933159069682
 20
193.663957034216
 30
0.0
 11
319.5800672529162
 21
193.663957034216
 31
0.0
  0
LINE
  5
3F04
330
3D94
100
AcDbEntity
  8
0
100
AcDbLine
 10
315.580067252916
 20
200.1639570342161
 30
0.0
 11
319.5800672529161
 21
200.1639570342161
 31
0.0
  0
LINE
  5
3F05
330
3D94
100
AcDbEntity
  8
0
100
AcDbLine
 10
315.580067252916
 20
199.1639570342161
 30
0.0
 11
319.5800672529161
 21
199.163957034216
 31
0.0
  0
LINE
  5
3F06
330
3D94
100
AcDbEntity
  8
0
100
AcDbLine
 10
319.5800672529162
 20
214.1639570342161
 30
0.0
 11
312.6933159069682
 21
214.1639570342161
 31
0.0
  0
ENDBLK
  5
3F08
330
3D94
100
AcDbEntity
  8
0
 48
2.0
100
AcDbBlockEnd
  0
BLOCK
  5
42CF
330
42CA
100
AcDbEntity
  8
GAWA
100
AcDbBlockBegin
  2
A3B
 70
     0
 10
0.0
 20
0.0
 30
0.0
  3
A3B
  1

  0
LINE
  5
42CB
330
42CA
100
AcDbEntity
  8
GAWA
100
AcDbLine
 10
25.0
 20
289.5
 30
0.0
 11
25.0
 21
7.5
 31
0.0
  0
LINE
  5
42CC
330
42CA
100
AcDbEntity
  8
GAWA
100
AcDbLine
 10
412.5
 20
289.5
 30
0.0
 11
25.0
 21
289.5
 31
0.0
  0
LINE
  5
42CD
330
42CA
100
AcDbEntity
  8
GAWA
100
AcDbLine
 10
412.5
 20
7.5
 30
0.0
 11
412.5
 21
289.5
 31
0.0
  0
LINE
  5
42CE
330
42CA
100
AcDbEntity
  8
GAWA
100
AcDbLine
 10
25.0
 20
7.5
 30
0.0
 11
412.5
 21
7.5
 31
0.0
  0
ENDBLK
  5
42D0
330
42CA
100
AcDbEntity
  8
GAWA
100
AcDbBlockEnd
  0
BLOCK
  5
42FB
330
42D1
100
AcDbEntity
  8
SCALE
100
AcDbBlockBegin
  2
P2BL145
 70
     0
 10
412.5
 20
7.5
 30
0.0
  3
P2BL145
  1

  0
LINE
  5
42D2
330
42D1
100
AcDbEntity
  8
SCALE
100
AcDbLine
 10
302.5
 20
15.5
 30
0.0
 11
302.5
 21
7.5
 31
0.0
  0
LINE
  5
42D3
330
42D1
100
AcDbEntity
  8
SCALE
100
AcDbLine
 10
308.5
 20
22.5
 30
0.0
 11
308.5
 21
15.5
 31
0.0
  0
LINE
  5
42D4
330
42D1
100
AcDbEntity
  8
SCALE
100
AcDbLine
 10
315.5
 20
22.5
 30
0.0
 11
315.5
 21
15.5
 31
0.0
  0
TEXT
  5
42D5
330
42D1
100
AcDbEntity
  8
SCALE
100
AcDbText
 10
312.2982
 20
8.936232165388721
 30
0.0
 40
4.0
  1
因幡電機産業株式会社　　因幡電工事業部
  7
CMP-SET
100
AcDbText
  0
LINE
  5
42D6
330
42D1
100
AcDbEntity
  8
SCALE
100
AcDbLine
 10
364.258708405745
 20
32.5
 30
0.0
 11
410.7412915942549
 21
32.5
 31
0.0
  0
TEXT
  5
42D7
330
42D1
100
AcDbEntity
  8
SCALE
100
AcDbText
 10
304.1054753239955
 20
15.84591866446666
 30
0.0
 40
3.0
  1
度
  7
CMP-SET
100
AcDbText
  0
TEXT
  5
42D8
330
42D1
100
AcDbEntity
  8
SCALE
100
AcDbText
 10
304.0984253331513
 20
19.19848587789964
 30
0.0
 40
3.0
  1
尺
  7
CMP-SET
100
AcDbText
  0
TEXT
  5
42D9
330
42D1
100
AcDbEntity
  8
SCALE
100
AcDbText
 10
345.522260765013
 20
38.23905658546055
 30
0.0
 40
2.0
  1
写図
  7
SMP-SET
100
AcDbText
  0
LINE
  5
42DA
330
42D1
100
AcDbEntity
  8
SCALE
100
AcDbLine
 10
328.5
 20
22.5
 30
0.0
 11
328.5
 21
15.5
 31
0.0
  0
LINE
  5
42DB
330
42D1
100
AcDbEntity
  8
SCALE
100
AcDbLine
 10
341.5
 20
25.5
 30
0.0
 11
341.5
 21
22.5
 31
0.0
  0
LINE
  5
42DC
330
42D1
100
AcDbEntity
  8
SCALE
100
AcDbLine
 10
328.5
 20
25.5
 30
0.0
 11
328.5
 21
22.5
 31
0.0
  0
TEXT
  5
42DD
330
42D1
100
AcDbEntity
  8
SCALE
100
AcDbText
 10
332.9111815169659
 20
38.08051053091333
 30
0.0
 40
2.0
  1
検図
  7
SMP-SET
100
AcDbText
  0
TEXT
  5
42DE
330
42D1
100
AcDbEntity
  8
SCALE
100
AcDbText
 10
319.5650565070327
 20
37.93637775405222
 30
0.0
 40
2.0
  1
製図
  7
SMP-SET
100
AcDbText
  0
TEXT
  5
42DF
330
42D1
100
AcDbEntity
  8
SCALE
100
AcDbText
 10
306.5360100610504
 20
38.08051053091333
 30
0.0
 40
2.0
  1
設計
  7
SMP-SET
100
AcDbText
  0
TEXT
  5
42E0
330
42D1
100
AcDbEntity
  8
SCALE
100
AcDbText
 10
356.2596939533502
 20
15.95612928273318
 30
0.0
 40
4.0
  1
番
  7
SMP-SET
100
AcDbText
  0
TEXT
  5
42E1
330
42D1
100
AcDbEntity
  8
SCALE
100
AcDbText
 10
356.4038205733278
 20
21.31786858196642
 30
0.0
 40
4.0
  1
図
  7
SMP-SET
100
AcDbText
  0
TEXT
  5
42E2
330
42D1
100
AcDbEntity
  8
SCALE
100
AcDbText
 10
356.1155673333725
 20
27.22731243327186
 30
0.0
 40
4.0
  1
称
  7
SMP-SET
100
AcDbText
  0
TEXT
  5
42E3
330
42D1
100
AcDbEntity
  8
SCALE
100
AcDbText
 10
355.9858533753926
 20
34.08803261186063
 30
0.0
 40
4.0
  1
名
  7
SMP-SET
100
AcDbText
  0
LINE
  5
42E4
330
42D1
100
AcDbEntity
  8
SCALE
100
AcDbLine
 10
302.5
 20
22.5
 30
0.0
 11
354.5
 21
22.5
 31
0.0
  0
LINE
  5
42E5
330
42D1
100
AcDbEntity
  8
SCALE
100
AcDbLine
 10
302.5
 20
37.5
 30
0.0
 11
354.5
 21
37.5
 31
0.0
  0
LINE
  5
42E6
330
42D1
100
AcDbEntity
  8
SCALE
100
AcDbLine
 10
341.5
 20
40.49999999999999
 30
0.0
 11
341.5
 21
25.5
 31
0.0
  0
LINE
  5
42E7
330
42D1
100
AcDbEntity
  8
SCALE
100
AcDbLine
 10
328.5
 20
40.49999999999999
 30
0.0
 11
328.5
 21
25.5
 31
0.0
  0
LINE
  5
42E8
330
42D1
100
AcDbEntity
  8
SCALE
100
AcDbLine
 10
315.5
 20
40.49999999999999
 30
0.0
 11
315.5
 21
22.5
 31
0.0
  0
LINE
  5
42E9
330
42D1
100
AcDbEntity
  8
SCALE
100
AcDbLine
 10
354.5
 20
40.49999999999999
 30
0.0
 11
354.5
 21
15.5
 31
0.0
  0
LINE
  5
42EA
330
42D1
100
AcDbEntity
  8
SCALE
100
AcDbLine
 10
362.5
 20
40.49999999999999
 30
0.0
 11
362.5
 21
15.5
 31
0.0
  0
LINE
  5
42EB
330
42D1
100
AcDbEntity
  8
SCALE
100
AcDbLine
 10
302.5
 20
25.5
 30
0.0
 11
412.5
 21
25.5
 31
0.0
  0
LINE
  5
42EC
330
42D1
100
AcDbEntity
  8
SCALE
100
AcDbLine
 10
412.5
 20
40.49999999999999
 30
0.0
 11
302.5
 21
40.49999999999999
 31
0.0
  0
LINE
  5
42ED
330
42D1
100
AcDbEntity
  8
SCALE
100
AcDbLine
 10
412.5
 20
15.5
 30
0.0
 11
412.5
 21
40.49999999999999
 31
0.0
  0
LINE
  5
42EE
330
42D1
100
AcDbEntity
  8
SCALE
100
AcDbLine
 10
302.5
 20
15.5
 30
0.0
 11
412.5
 21
15.5
 31
0.0
  0
LINE
  5
42EF
330
42D1
100
AcDbEntity
  8
SCALE
100
AcDbLine
 10
302.5
 20
40.49999999999999
 30
0.0
 11
302.5
 21
15.5
 31
0.0
  0
TEXT
  5
42F0
330
42D1
100
AcDbEntity
  8
SCALE
100
AcDbText
 10
391.1929
 20
41.67295933223333
 30
0.0
 40
3.5
  1
備　　考
  7
CMP-SET
100
AcDbText
  0
TEXT
  5
42F1
330
42D1
100
AcDbEntity
  8
SCALE
100
AcDbText
 10
367.1929
 20
41.67295933223333
 30
0.0
 40
3.5
  1
色　　調
  7
CMP-SET
100
AcDbText
  0
TEXT
  5
42F2
330
42D1
100
AcDbEntity
  8
SCALE
100
AcDbText
 10
343.1929
 20
41.67295933223333
 30
0.0
 40
3.5
  1
材　　質
  7
CMP-SET
100
AcDbText
  0
TEXT
  5
42F3
330
42D1
100
AcDbEntity
  8
SCALE
100
AcDbText
 10
319.1929
 20
41.67295933223333
 30
0.0
 40
3.5
  1
品　　名
  7
CMP-SET
100
AcDbText
  0
LINE
  5
42F4
330
42D1
100
AcDbEntity
  8
SCALE
100
AcDbLine
 10
387.5
 20
60.5
 30
0.0
 11
387.5
 21
40.49999999999999
 31
0.0
  0
LINE
  5
42F5
330
42D1
100
AcDbEntity
  8
SCALE
100
AcDbLine
 10
363.5
 20
60.5
 30
0.0
 11
363.5
 21
40.49999999999999
 31
0.0
  0
LINE
  5
42F6
330
42D1
100
AcDbEntity
  8
SCALE
100
AcDbLine
 10
339.5
 20
60.5
 30
0.0
 11
339.5
 21
40.49999999999999
 31
0.0
  0
LINE
  5
42F7
330
42D1
100
AcDbEntity
  8
SCALE
100
AcDbLine
 10
315.5
 20
60.5
 30
0.0
 11
315.5
 21
40.49999999999999
 31
0.0
  0
LINE
  5
42F8
330
42D1
100
AcDbEntity
  8
SCALE
100
AcDbLine
 10
302.5
 20
50.5
 30
0.0
 11
412.5
 21
50.5
 31
0.0
  0
LINE
  5
42F9
330
42D1
100
AcDbEntity
  8
SCALE
100
AcDbLine
 10
302.5
 20
60.5
 30
0.0
 11
302.5
 21
40.49999999999999
 31
0.0
  0
LINE
  5
42FA
330
42D1
100
AcDbEntity
  8
SCALE
100
AcDbLine
 10
412.5
 20
60.5
 30
0.0
 11
302.5
 21
60.5
 31
0.0
  0
ENDBLK
  5
42FC
330
42D1
100
AcDbEntity
  8
SCALE
100
AcDbBlockEnd
  0
BLOCK
  5
4431
330
42FE
100
AcDbEntity
  8
0
 48
2.0
100
AcDbBlockBegin
  2
A$C7CF544CF
 70
     0
 10
0.0
 20
0.0
 30
0.0
  3
A$C7CF544CF
  1

  0
LINE
  5
42FF
330
42FE
100
AcDbEntity
  8
SUNPOU
100
AcDbLine
 10
46.56501121060543
 20
41.56917817559582
 30
0.0
 11
196.5650112106054
 21
41.56917817559582
 31
0.0
  0
TEXT
  5
4300
330
42FE
100
AcDbEntity
  8
SUNPOUA
100
AcDbText
 10
184.5412016867959
 20
49.81917817559582
 30
0.0
 40
2.5
  1
40
  7
CMP-SET
 72
     1
 11
186.5650112106054
 21
49.81917817559582
 31
0.0
100
AcDbText
  0
LINE
  5
4301
330
42FE
100
AcDbEntity
  8
SUNPOU
100
AcDbLine
 10
176.5650112106054
 20
48.56917817559582
 30
0.0
 11
196.5650112106054
 21
48.56917817559582
 31
0.0
  0
LINE
  5
4302
330
42FE
100
AcDbEntity
  8
0
100
AcDbLine
 10
49.56501121060544
 20
232.0691781755959
 30
0.0
 11
196.5650112106055
 21
232.0691781755958
 31
0.0
  0
LINE
  5
4303
330
42FE
100
AcDbEntity
  8
CENTER
100
AcDbLine
 10
32.04531580614233
 20
241.3191781755958
 30
0.0
 11
210.8632132124507
 21
241.3191781755958
 31
0.0
  0
LINE
  5
4304
330
42FE
100
AcDbEntity
  8
0
100
AcDbLine
 10
177.1900112106054
 20
243.9441781755958
 30
0.0
 11
190.9400112106054
 21
243.9441781755958
 31
0.0
  0
LINE
  5
4305
330
42FE
100
AcDbEntity
  8
0
100
AcDbLine
 10
177.1900112106054
 20
238.6941781755958
 30
0.0
 11
190.9400112106054
 21
238.6941781755958
 31
0.0
  0
CIRCLE
  5
4306
330
42FE
100
AcDbEntity
  8
0
100
AcDbCircle
 10
184.0650112106054
 20
235.0691781755958
 30
0.0
 40
0.95
  0
CIRCLE
  5
4307
330
42FE
100
AcDbEntity
  8
0
100
AcDbCircle
 10
184.0650112106054
 20
247.5691781755958
 30
0.0
 40
0.95
  0
LINE
  5
4308
330
42FE
100
AcDbEntity
  8
CENTER
100
AcDbLine
 10
203.9609348097489
 20
222.9651017747393
 30
0.0
 11
97.87393347475736
 21
116.8781004397477
 31
0.0
  0
LINE
  5
4309
330
42FE
100
AcDbEntity
  8
0
100
AcDbLine
 10
46.56501121060543
 20
252.0691781755958
 30
0.0
 11
196.5650112106055
 21
252.0691781755958
 31
0.0
  0
LINE
  5
430A
330
42FE
100
AcDbEntity
  8
0
100
AcDbLine
 10
46.56501121060543
 20
214.0691781755958
 30
0.0
 11
196.5650112106054
 21
214.0691781755958
 31
0.0
  0
LINE
  5
430B
330
42FE
100
AcDbEntity
  8
0
100
AcDbLine
 10
196.5650112106054
 20
65.56917817559583
 30
0.0
 11
180.7071468343364
 21
65.56917817559583
 31
0.0
  0
LINE
  5
430C
330
42FE
100
AcDbEntity
  8
0
100
AcDbLine
 10
46.56501121060543
 20
215.5691781755958
 30
0.0
 11
195.0650112106054
 21
215.5691781755958
 31
0.0
  0
INSERT
  5
430D
330
42FE
100
AcDbEntity
  8
GAWA
100
AcDbBlockReference
  2
A3B
 10
-25.00000038102371
 20
-7.500000069150246
 30
0.0
  0
LINE
  5
430E
330
42FE
100
AcDbEntity
  8
SUNPOU
100
AcDbLine
 10
104.5381375725641
 20
137.5960518136371
 30
0.0
 11
118.6802731962951
 21
151.7381874373681
 31
0.0
  0
TEXT
  5
430F
330
42FE
100
AcDbEntity
  8
SUNPOUA
100
AcDbText
 10
22.3150112106054
 20
139.8548924613101
 30
0.0
 40
2.5
  1
L
 50
90.0
  7
CMP-SET
 72
     1
 11
22.3150112106054
 21
140.5691781755958
 31
0.0
100
AcDbText
  0
LINE
  5
4310
330
42FE
100
AcDbEntity
  8
SUNPOU
100
AcDbLine
 10
23.56501121060546
 20
65.56917817559581
 30
0.0
 11
23.56501121060558
 21
215.5691781755958
 31
0.0
  0
LINE
  5
4311
330
42FE
100
AcDbEntity
  8
SUNPOUN
100
AcDbLine
 10
46.56501121060546
 20
182.6326123695199
 30
0.0
 11
46.56501121060543
 21
39.89417817559581
 31
0.0
  0
LINE
  5
4312
330
42FE
100
AcDbEntity
  8
0
100
AcDbLine
 10
79.11704941103369
 20
191.3014112226294
 30
0.0
 11
172.2972442576391
 21
98.12121637602412
 31
0.0
  0
LINE
  5
4313
330
42FE
100
AcDbEntity
  8
0
100
AcDbLine
 10
49.49394339873996
 20
192.6402459874613
 30
0.0
 11
173.6360790224709
 21
68.49811036373035
 31
0.0
  0
LINE
  5
4314
330
42FE
100
AcDbEntity
  8
0
100
AcDbLine
 10
176.5650112106054
 20
99.88898332899049
 30
0.0
 11
176.5650112106053
 21
188.0691781755958
 31
0.0
  0
LINE
  5
4315
330
42FE
100
AcDbEntity
  8
SUNPOUN
100
AcDbLine
 10
159.3330972184208
 20
65.56917817559571
 30
0.0
 11
21.89001121060548
 21
65.56917817559578
 31
0.0
  0
INSERT
  5
4316
330
42FE
100
AcDbEntity
  8
SUNPOU
100
AcDbBlockReference
  2
YAN2
 10
46.56501121060543
 20
41.56917817559582
 30
0.0
 41
3.75
 42
3.75
 43
3.75
 50
180.0
  0
INSERT
  5
4317
330
42FE
100
AcDbEntity
  8
SUNPOU
100
AcDbBlockReference
  2
YAN2
 10
23.56501121060546
 20
65.56917817559581
 30
0.0
 41
3.75
 42
3.75
 43
3.75
 50
269.9999999999999
  0
INSERT
  5
4318
330
42FE
100
AcDbEntity
  8
SUNPOU
100
AcDbBlockReference
  2
YAN2
 10
176.5650112106054
 20
48.56917817559582
 30
0.0
 41
3.75
 42
3.75
 43
3.75
 50
180.0
  0
LINE
  5
4319
330
42FE
100
AcDbEntity
  8
SUNPOUN
100
AcDbLine
 10
176.5650112106054
 20
95.96534744128698
 30
0.0
 11
176.5650112106054
 21
46.89417817559582
 31
0.0
  0
TEXT
  5
431A
330
42FE
100
AcDbEntity
  8
SUNPOUA
100
AcDbText
 10
120.8507254963197
 20
42.81917817559582
 30
0.0
 40
2.5
  1
L
  7
CMP-SET
 72
     1
 11
121.5650112106054
 21
42.81917817559582
 31
0.0
100
AcDbText
  0
INSERT
  5
431B
330
42FE
100
AcDbEntity
  8
SUNPOU
100
AcDbBlockReference
  2
YAN2
 10
104.5381375725641
 20
137.5960518136371
 30
0.0
 41
3.75
 42
3.75
 43
3.75
 50
225.0
  0
ARC
  5
431C
330
42FE
100
AcDbEntity
  8
0
100
AcDbCircle
 10
180.7071468343364
 20
75.56917817559583
 30
0.0
 40
10.0
100
AcDbArc
 50
225.0
 51
269.9999999999999
  0
ARC
  5
431D
330
42FE
100
AcDbEntity
  8
0
100
AcDbCircle
 10
174.0650112106054
 20
99.88898332899049
 30
0.0
 40
2.5
100
AcDbArc
 50
225.0
 51
0.0000000000000127
  0
LINE
  5
431E
330
42FE
100
AcDbEntity
  8
SUNPOUN
100
AcDbLine
 10
76.74357921693661
 20
195.5691781755957
 30
0.0
 11
31.89001121060556
 21
195.5691781755957
 31
0.0
  0
LINE
  5
431F
330
42FE
100
AcDbEntity
  8
0
100
AcDbLine
 10
52.19001121060543
 20
243.9441781755958
 30
0.0
 11
65.94001121060543
 21
243.9441781755958
 31
0.0
  0
LINE
  5
4320
330
42FE
100
AcDbEntity
  8
0
100
AcDbLine
 10
52.19001121060543
 20
238.6941781755958
 30
0.0
 11
65.94001121060543
 21
238.6941781755958
 31
0.0
  0
TEXT
  5
4321
330
42FE
100
AcDbEntity
  8
SUNPOUA
100
AcDbText
 10
42.78799708739414
 20
230.3902200483021
 30
0.0
 40
2.5
  1
R6
 50
40.74446949075926
  7
CMP-SET
 72
     1
 11
44.32129182679136
 21
231.7111334560617
 31
0.0
100
AcDbText
  0
LINE
  5
4322
330
42FE
100
AcDbEntity
  8
SUNPOU
100
AcDbLine
 10
42.46172324460275
 20
228.4592531427024
 30
0.0
 11
49.82508558585846
 21
234.8026937042868
 31
0.0
  0
INSERT
  5
4323
330
42FE
100
AcDbEntity
  8
SUNPOU
100
AcDbBlockReference
  2
YAN2
 10
47.55220161922255
 20
232.844633829255
 30
0.0
 41
3.75
 42
3.75
 43
3.75
 50
220.744469490759
  0
ARC
  5
4324
330
42FE
100
AcDbEntity
  8
0
100
AcDbCircle
 10
49.56501121060544
 20
235.0691781755958
 30
0.0
 40
3.0
100
AcDbArc
 50
180.0
 51
270.0
  0
LINE
  5
4325
330
42FE
100
AcDbEntity
  8
SUNPOU
100
AcDbLine
 10
33.56501121060549
 20
195.5691781755957
 30
0.0
 11
33.56501121060546
 21
215.5691781755958
 31
0.0
  0
LINE
  5
4326
330
42FE
100
AcDbEntity
  8
0
100
AcDbLine
 10
46.56501121060543
 20
215.5691781755958
 30
0.0
 11
46.56501121060543
 21
199.7113137993268
 31
0.0
  0
TEXT
  5
4327
330
42FE
100
AcDbEntity
  8
SCALE
100
AcDbText
 10
36.23940044749276
 20
189.1955006059559
 30
0.0
 40
2.5
  1
R20
 50
35.0
  7
CMP-SET
100
AcDbText
  0
LINE
  5
4328
330
42FE
100
AcDbEntity
  8
SCALE
100
AcDbLine
 10
47.32621588549256
 20
195.8844794756758
 30
0.0
 11
36.3680281853608
 21
188.1081759025413
 31
0.0
  0
INSERT
  5
4329
330
42FE
100
AcDbEntity
  8
SUNPOU
100
AcDbBlockReference
  2
YAN2
 10
33.56501121060549
 20
195.5691781755957
 30
0.0
 41
3.75
 42
3.75
 43
3.75
 50
270.0000000000001
  0
TEXT
  5
432A
330
42FE
100
AcDbEntity
  8
SUNPOUA
100
AcDbText
 10
32.31501121060546
 20
203.5453686517863
 30
0.0
 40
2.5
  1
40
 50
90.0
  7
CMP-SET
 72
     1
 11
32.31501121060546
 21
205.5691781755958
 31
0.0
100
AcDbText
  0
ARC
  5
432B
330
42FE
100
AcDbEntity
  8
0
100
AcDbCircle
 10
56.56501121060543
 20
199.7113137993268
 30
0.0
 40
10.0
100
AcDbArc
 50
180.0
 51
225.0
  0
LINE
  5
432C
330
42FE
100
AcDbEntity
  8
SCALE
100
AcDbLine
 10
48.55668647184734
 20
196.7423501746251
 30
0.0
 11
50.60472899548853
 21
198.1702231288571
 31
0.0
  0
INSERT
  5
432D
330
42FE
100
AcDbEntity
  8
SCALE
100
AcDbBlockReference
  2
YAZ3
 10
47.32621588549259
 20
195.8844794756758
 30
0.0
 41
1.5
 42
1.5
 43
1.5
 50
214.8837889084542
  0
LINE
  5
432E
330
42FE
100
AcDbEntity
  8
SUNPOUN
100
AcDbLine
 10
44.06501121060546
 20
215.5691781755958
 30
0.0
 11
21.89001121060559
 21
215.5691781755958
 31
0.0
  0
INSERT
  5
432F
330
42FE
100
AcDbEntity
  8
SUNPOU
100
AcDbBlockReference
  2
YAN2
 10
23.56501121060558
 20
215.5691781755958
 30
0.0
 41
3.75
 42
3.75
 43
3.75
 50
89.99999999999996
  0
INSERT
  5
4330
330
42FE
100
AcDbEntity
  8
SUNPOU
100
AcDbBlockReference
  2
YAN2
 10
33.56501121060546
 20
215.5691781755958
 30
0.0
 41
3.75
 42
3.75
 43
3.75
 50
90.00000000000005
  0
LINE
  5
4331
330
42FE
100
AcDbEntity
  8
0
100
AcDbLine
 10
49.56501121060544
 20
215.5691781755958
 30
0.0
 11
49.56501121060544
 21
214.0691781755958
 31
0.0
  0
LINE
  5
4332
330
42FE
100
AcDbEntity
  8
0
100
AcDbLine
 10
46.56501121060543
 20
252.0691781755958
 30
0.0
 11
46.56501121060543
 21
235.0691781755958
 31
0.0
  0
ARC
  5
4333
330
42FE
100
AcDbEntity
  8
0
100
AcDbCircle
 10
52.19001121060543
 20
241.3191781755958
 30
0.0
 40
2.625
100
AcDbArc
 50
90.0
 51
270.0
  0
LINE
  5
4334
330
42FE
100
AcDbEntity
  8
0
100
AcDbLine
 10
80.88481636400004
 20
195.5691781755958
 30
0.0
 11
169.0650112106053
 21
195.5691781755958
 31
0.0
  0
TEXT
  5
4335
330
42FE
100
AcDbEntity
  8
SUNPOUA
100
AcDbText
 10
109.2942724698308
 20
144.1199536638702
 30
0.0
 40
2.5
  1
40
 50
44.99999999999995
  7
CMP-SET
 72
     1
 11
110.7253219079464
 21
145.5510031019858
 31
0.0
100
AcDbText
  0
INSERT
  5
4336
330
42FE
100
AcDbEntity
  8
SUNPOU
100
AcDbBlockReference
  2
YAN2
 10
118.6802731962951
 20
151.7381874373681
 30
0.0
 41
3.75
 42
3.75
 43
3.75
 50
45.0
  0
TEXT
  5
4337
330
42FE
100
AcDbEntity
  8
SCALE
100
AcDbText
 10
83.35348280986014
 20
192.0713165193238
 30
0.0
 40
2.5
  1
R5
 50
331.9999999999999
  7
CMP-SET
100
AcDbText
  0
LINE
  5
4338
330
42FE
100
AcDbEntity
  8
SCALE
100
AcDbLine
 10
79.87880787204517
 20
193.2840030060765
 30
0.0
 11
87.5212524722731
 21
188.9349599154997
 31
0.0
  0
ARC
  5
4339
330
42FE
100
AcDbEntity
  8
0
100
AcDbCircle
 10
80.88481636400004
 20
193.0691781755958
 30
0.0
 40
2.5
100
AcDbArc
 50
90.00000000000003
 51
225.0
  0
INSERT
  5
433A
330
42FE
100
AcDbEntity
  8
SCALE
100
AcDbBlockReference
  2
YAZ3
 10
78.57511753272186
 20
194.0258867565085
 30
0.0
 41
1.5
 42
1.5
 43
1.5
 50
150.3573368088308
  0
LINE
  5
433B
330
42FE
100
AcDbEntity
  8
SCALE
100
AcDbLine
 10
173.0240617519819
 20
192.7069032808497
 30
0.0
 11
163.1597099169519
 21
187.8227880820368
 31
0.0
  0
TEXT
  5
433C
330
42FE
100
AcDbEntity
  8
SCALE
100
AcDbText
 10
163.358994918504
 20
188.676714346819
 30
0.0
 40
2.5
  1
R15
 50
27.99999999999998
  7
CMP-SET
100
AcDbText
  0
ARC
  5
433D
330
42FE
100
AcDbEntity
  8
0
100
AcDbCircle
 10
169.0650112106053
 20
188.0691781755958
 30
0.0
 40
7.5
100
AcDbArc
 50
0.0000000000000254
 51
89.99999999999994
  0
INSERT
  5
433E
330
42FE
100
AcDbEntity
  8
SCALE
100
AcDbBlockReference
  2
YAZ3
 10
174.3683120695045
 20
193.3724790344949
 30
0.0
 41
1.5
 42
1.5
 43
1.5
 50
26.34129278862261
  0
LINE
  5
433F
330
42FE
100
AcDbEntity
  8
0
100
AcDbLine
 10
77.19001121060543
 20
238.6941781755958
 30
0.0
 11
90.94001121060543
 21
238.6941781755958
 31
0.0
  0
LINE
  5
4340
330
42FE
100
AcDbEntity
  8
0
100
AcDbLine
 10
77.19001121060543
 20
243.9441781755958
 30
0.0
 11
90.94001121060543
 21
243.9441781755958
 31
0.0
  0
CIRCLE
  5
4341
330
42FE
100
AcDbEntity
  8
0
100
AcDbCircle
 10
59.06501121060543
 20
235.0691781755958
 30
0.0
 40
0.95
  0
ARC
  5
4342
330
42FE
100
AcDbEntity
  8
0
100
AcDbCircle
 10
65.94001121060543
 20
241.3191781755958
 30
0.0
 40
2.625
100
AcDbArc
 50
270.0000000000001
 51
90.00000000000003
  0
CIRCLE
  5
4343
330
42FE
100
AcDbEntity
  8
0
100
AcDbCircle
 10
59.06501121060543
 20
247.5691781755958
 30
0.0
 40
0.95
  0
ARC
  5
4344
330
42FE
100
AcDbEntity
  8
0
100
AcDbCircle
 10
77.19001121060543
 20
241.3191781755958
 30
0.0
 40
2.625
100
AcDbArc
 50
90.0
 51
270.0
  0
CIRCLE
  5
4345
330
42FE
100
AcDbEntity
  8
0
100
AcDbCircle
 10
84.06501121060543
 20
235.0691781755958
 30
0.0
 40
0.95
  0
CIRCLE
  5
4346
330
42FE
100
AcDbEntity
  8
0
100
AcDbCircle
 10
84.06501121060543
 20
247.5691781755958
 30
0.0
 40
0.95
  0
LINE
  5
4347
330
42FE
100
AcDbEntity
  8
0
100
AcDbLine
 10
102.1900112106054
 20
238.6941781755958
 30
0.0
 11
115.9400112106054
 21
238.6941781755958
 31
0.0
  0
LINE
  5
4348
330
42FE
100
AcDbEntity
  8
0
100
AcDbLine
 10
102.1900112106054
 20
243.9441781755958
 30
0.0
 11
115.9400112106054
 21
243.9441781755958
 31
0.0
  0
ARC
  5
4349
330
42FE
100
AcDbEntity
  8
0
100
AcDbCircle
 10
90.94001121060543
 20
241.3191781755958
 30
0.0
 40
2.625
100
AcDbArc
 50
270.0000000000001
 51
90.00000000000003
  0
ARC
  5
434A
330
42FE
100
AcDbEntity
  8
0
100
AcDbCircle
 10
102.1900112106054
 20
241.3191781755958
 30
0.0
 40
2.625
100
AcDbArc
 50
90.0
 51
270.0
  0
CIRCLE
  5
434B
330
42FE
100
AcDbEntity
  8
0
100
AcDbCircle
 10
109.0650112106054
 20
235.0691781755958
 30
0.0
 40
0.95
  0
ARC
  5
434C
330
42FE
100
AcDbEntity
  8
0
100
AcDbCircle
 10
115.9400112106054
 20
241.3191781755958
 30
0.0
 40
2.625
100
AcDbArc
 50
270.0000000000001
 51
90.00000000000003
  0
CIRCLE
  5
434D
330
42FE
100
AcDbEntity
  8
0
100
AcDbCircle
 10
109.0650112106054
 20
247.5691781755958
 30
0.0
 40
0.95
  0
ARC
  5
434E
330
42FE
100
AcDbEntity
  8
0
100
AcDbCircle
 10
152.1900112106054
 20
241.3191781755958
 30
0.0
 40
2.625
100
AcDbArc
 50
90.0
 51
270.0
  0
LINE
  5
434F
330
42FE
100
AcDbEntity
  8
0
100
AcDbLine
 10
127.1900112106054
 20
243.9441781755958
 30
0.0
 11
140.9400112106054
 21
243.9441781755958
 31
0.0
  0
LINE
  5
4350
330
42FE
100
AcDbEntity
  8
0
100
AcDbLine
 10
127.1900112106054
 20
238.6941781755958
 30
0.0
 11
140.9400112106054
 21
238.6941781755958
 31
0.0
  0
ARC
  5
4351
330
42FE
100
AcDbEntity
  8
0
100
AcDbCircle
 10
127.1900112106054
 20
241.3191781755958
 30
0.0
 40
2.625
100
AcDbArc
 50
90.0
 51
270.0
  0
CIRCLE
  5
4352
330
42FE
100
AcDbEntity
  8
0
100
AcDbCircle
 10
134.0650112106054
 20
235.0691781755958
 30
0.0
 40
0.95
  0
CIRCLE
  5
4353
330
42FE
100
AcDbEntity
  8
0
100
AcDbCircle
 10
134.0650112106054
 20
247.5691781755958
 30
0.0
 40
0.95
  0
ARC
  5
4354
330
42FE
100
AcDbEntity
  8
0
100
AcDbCircle
 10
140.9400112106054
 20
241.3191781755958
 30
0.0
 40
2.625
100
AcDbArc
 50
270.0000000000001
 51
90.00000000000003
  0
LINE
  5
4355
330
42FE
100
AcDbEntity
  8
0
100
AcDbLine
 10
152.1900112106054
 20
238.6941781755958
 30
0.0
 11
165.9400112106054
 21
238.6941781755958
 31
0.0
  0
LINE
  5
4356
330
42FE
100
AcDbEntity
  8
0
100
AcDbLine
 10
152.1900112106054
 20
243.9441781755958
 30
0.0
 11
165.9400112106054
 21
243.9441781755958
 31
0.0
  0
CIRCLE
  5
4357
330
42FE
100
AcDbEntity
  8
0
100
AcDbCircle
 10
159.0650112106054
 20
235.0691781755958
 30
0.0
 40
0.95
  0
ARC
  5
4358
330
42FE
100
AcDbEntity
  8
0
100
AcDbCircle
 10
165.9400112106054
 20
241.3191781755958
 30
0.0
 40
2.625
100
AcDbArc
 50
270.0000000000001
 51
90.00000000000003
  0
CIRCLE
  5
4359
330
42FE
100
AcDbEntity
  8
0
100
AcDbCircle
 10
159.0650112106054
 20
247.5691781755958
 30
0.0
 40
0.95
  0
ARC
  5
435A
330
42FE
100
AcDbEntity
  8
0
100
AcDbCircle
 10
177.1900112106054
 20
241.3191781755958
 30
0.0
 40
2.625
100
AcDbArc
 50
90.0
 51
270.0
  0
LINE
  5
435B
330
42FE
100
AcDbEntity
  8
SCALE
100
AcDbLine
 10
371.2558481227755
 20
159.6938755010719
 30
0.0
 11
371.2558481227755
 21
135.6938755010719
 31
0.0
  0
LINE
  5
435C
330
42FE
100
AcDbEntity
  8
SCALE
100
AcDbLine
 10
311.2558481227754
 20
135.6938755010719
 30
0.0
 11
311.2558481227754
 21
159.6938755010719
 31
0.0
  0
LINE
  5
435D
330
42FE
100
AcDbEntity
  8
0
100
AcDbLine
 10
213.0650112106054
 20
68.56917817559582
 30
0.0
 11
213.0650112106055
 21
215.5691781755959
 31
0.0
  0
LINE
  5
435E
330
42FE
100
AcDbEntity
  8
SCALE
100
AcDbLine
 10
351.2558481227754
 20
159.6938755010719
 30
0.0
 11
351.2558481227754
 21
135.6938755010719
 31
0.0
  0
LINE
  5
435F
330
42FE
100
AcDbEntity
  8
SCALE
100
AcDbLine
 10
331.2558481227754
 20
159.6938755010719
 30
0.0
 11
331.2558481227754
 21
135.6938755010719
 31
0.0
  0
LINE
  5
4360
330
42FE
100
AcDbEntity
  8
SCALE
100
AcDbLine
 10
286.2558481227754
 20
159.6938755010719
 30
0.0
 11
286.2558481227754
 21
135.6938755010719
 31
0.0
  0
LINE
  5
4361
330
42FE
100
AcDbEntity
  8
CENTER
100
AcDbLine
 10
222.3150112106054
 20
65.56917817559583
 30
0.0
 11
222.3150112106055
 21
230.5904341204662
 31
0.0
  0
LINE
  5
4362
330
42FE
100
AcDbEntity
  8
0
100
AcDbLine
 10
233.0650112106054
 20
65.56917817559583
 30
0.0
 11
233.0650112106054
 21
215.5691781755959
 31
0.0
  0
LINE
  5
4363
330
42FE
100
AcDbEntity
  8
0
100
AcDbLine
 10
195.0650112106054
 20
215.5691781755958
 30
0.0
 11
195.0650112106054
 21
65.56917817559583
 31
0.0
  0
LINE
  5
4364
330
42FE
100
AcDbEntity
  8
0
100
AcDbLine
 10
196.5650112106054
 20
214.0691781755958
 30
0.0
 11
196.5650112106054
 21
65.56917817559583
 31
0.0
  0
LWPOLYLINE
  5
4365
330
42FE
100
AcDbEntity
  8
SUNPOUA
100
AcDbPolyline
 90
        3
 70
     1
 43
0.0
 10
317.5516571849303
 20
52.67296320014115
 10
315.0516571849303
 20
48.34283618121895
 10
320.0516571849303
 20
48.34283618121895
  0
INSERT
  5
4366
330
42FE
100
AcDbEntity
  8
SCALE
100
AcDbBlockReference
  2
P2BL145
 10
387.4999996189763
 20
-0.0000000691502464
 30
0.0
  0
LINE
  5
4367
330
42FE
100
AcDbEntity
  8
SCALE
100
AcDbLine
 10
289.3257451283001
 20
102.003154351892
 30
0.0
 11
361.1584525251761
 21
102.003154351892
 31
0.0
  0
TEXT
  5
4368
330
42FE
100
AcDbEntity
  8
SCALE
100
AcDbText
 10
291.8623736399072
 20
103.5543045023336
 30
0.0
 40
3.5
  1
注）X部分ハ全面ビート溶接スル事。
  7
CMP-SET
100
AcDbText
  0
TEXT
  5
4369
330
42FE
100
AcDbEntity
  8
SCALE
100
AcDbText
 10
316.1993911880099
 20
136.6938755010719
 30
0.0
 40
3.5
  1
450
  7
CMP-SET
100
AcDbText
  0
LINE
  5
436A
330
42FE
100
AcDbEntity
  8
SCALE
100
AcDbLine
 10
286.2558481227754
 20
135.6938755010719
 30
0.0
 11
371.2558481227755
 21
135.6938755010719
 31
0.0
  0
INSERT
  5
436B
330
42FE
100
AcDbEntity
  8
SUNPOU
100
AcDbBlockReference
  2
YAN2
 10
196.5650112106054
 20
48.56917817559582
 30
0.0
 41
3.75
 42
3.75
 43
3.75
  0
LINE
  5
436C
330
42FE
100
AcDbEntity
  8
SUNPOUN
100
AcDbLine
 10
196.5650112106054
 20
63.06917817559578
 30
0.0
 11
196.5650112106054
 21
39.89417817559581
 31
0.0
  0
LINE
  5
436D
330
42FE
100
AcDbEntity
  8
SUNPOUN
100
AcDbLine
 10
228.5650112106053
 20
54.68004288534467
 30
0.0
 11
228.5650112106054
 21
46.89417817559581
 31
0.0
  0
LINE
  5
436E
330
42FE
100
AcDbEntity
  8
SUNPOUN
100
AcDbLine
 10
233.0650112106054
 20
63.06917817559583
 30
0.0
 11
233.0650112106054
 21
39.89417817559583
 31
0.0
  0
LINE
  5
436F
330
42FE
100
AcDbEntity
  8
SUNPOUN
100
AcDbLine
 10
213.0650112106054
 20
65.23992202835895
 30
0.0
 11
213.0650112106054
 21
39.89417817559583
 31
0.0
  0
INSERT
  5
4370
330
42FE
100
AcDbEntity
  8
SUNPOU
100
AcDbBlockReference
  2
YAN2
 10
228.5650112106054
 20
48.56917817559582
 30
0.0
 41
3.75
 42
3.75
 43
3.75
 50
359.9999999999998
  0
INSERT
  5
4371
330
42FE
100
AcDbEntity
  8
SUNPOU
100
AcDbBlockReference
  2
YAN2
 10
216.0650112106054
 20
48.56917817559582
 30
0.0
 41
3.75
 42
3.75
 43
3.75
 50
179.9999999999999
  0
LINE
  5
4372
330
42FE
100
AcDbEntity
  8
SUNPOUN
100
AcDbLine
 10
216.0650112106054
 20
65.56917817559583
 30
0.0
 11
216.0650112106054
 21
46.89417817559584
 31
0.0
  0
TEXT
  5
4373
330
42FE
100
AcDbEntity
  8
SUNPOUA
100
AcDbText
 10
228.2619419174327
 20
21.99999993084976
 30
0.0
 40
3.0
  1
材質変更  SPC→SPH
 41
0.7367738799858467
  7
CMP-SET
 72
     5
 11
256.4909068620333
 21
21.99999993084976
 31
0.0
100
AcDbText
  0
TEXT
  5
4374
330
42FE
100
AcDbEntity
  8
SUNPOUA
100
AcDbText
 10
228.2619419174327
 20
14.99999993084975
 30
0.0
 40
3.0
  1
穴ピッチ変更  センター→21.5
 41
0.5452614641617114
  7
CMP-SET
 72
     5
 11
256.4909068620333
 21
14.99999993084975
 31
0.0
100
AcDbText
  0
TEXT
  5
4375
330
42FE
100
AcDbEntity
  8
SUNPOUA
100
AcDbText
 10
228.2619419174327
 20
7.999999930849753
 30
0.0
 40
3.0
  1
巾寸法変更  43→40
 41
0.7891483810391539
  7
CMP-SET
 72
     5
 11
256.4909068620333
 21
7.999999930849753
 31
0.0
100
AcDbText
  0
TEXT
  5
4376
330
42FE
100
AcDbEntity
  8
SUNPOUA
100
AcDbText
 10
234.537019533533
 20
0.9999999308497535
 30
0.0
 40
3.0
  1
内　　　容
  7
CMP-SET
100
AcDbText
  0
LINE
  5
4377
330
42FE
100
AcDbEntity
  8
SUNPOUA
100
AcDbLine
 10
197.4999996189763
 20
6.999999930849753
 30
0.0
 11
277.4999996189763
 21
6.999999930849753
 31
0.0
  0
LINE
  5
4378
330
42FE
100
AcDbEntity
  8
SUNPOUA
100
AcDbLine
 10
197.4999996189763
 20
13.99999993084975
 30
0.0
 11
277.4999996189763
 21
13.99999993084975
 31
0.0
  0
LINE
  5
4379
330
42FE
100
AcDbEntity
  8
SUNPOUA
100
AcDbLine
 10
197.4999996189763
 20
20.99999993084975
 30
0.0
 11
277.4999996189763
 21
20.99999993084975
 31
0.0
  0
LINE
  5
437A
330
42FE
100
AcDbEntity
  8
SUNPOUA
100
AcDbLine
 10
197.4999996189763
 20
27.99999993084976
 30
0.0
 11
277.4999996189763
 21
27.99999993084976
 31
0.0
  0
TEXT
  5
437B
330
42FE
100
AcDbEntity
  8
SUNPOUA
100
AcDbText
 10
210.7151897523513
 20
0.9999999308497535
 30
0.0
 40
3.0
  1
日　　付
  7
CMP-SET
100
AcDbText
  0
TEXT
  5
437C
330
42FE
100
AcDbEntity
  8
SUNPOUA
100
AcDbText
 10
199.0570413816799
 20
0.9999999308497535
 30
0.0
 40
3.0
  1
符号
  7
CMP-SET
100
AcDbText
  0
LINE
  5
437D
330
42FE
100
AcDbEntity
  8
SUNPOUA
100
AcDbLine
 10
227.4999996189763
 20
-0.0000000691502464
 30
0.0
 11
227.4999996189763
 21
27.99999993084976
 31
0.0
  0
LINE
  5
437E
330
42FE
100
AcDbEntity
  8
SUNPOUA
100
AcDbLine
 10
207.4999996189763
 20
-0.0000000691502464
 30
0.0
 11
207.4999996189763
 21
27.99999993084976
 31
0.0
  0
LINE
  5
437F
330
42FE
100
AcDbEntity
  8
SUNPOUA
100
AcDbLine
 10
197.4999996189763
 20
-0.0000000691502464
 30
0.0
 11
197.4999996189763
 21
27.99999993084976
 31
0.0
  0
LWPOLYLINE
  5
4380
330
42FE
100
AcDbEntity
  8
SUNPOUA
100
AcDbPolyline
 90
        3
 70
     1
 43
0.0
 10
217.6936560133356
 20
47.25967360005397
 10
215.1936560133356
 20
42.92954658113178
 10
220.1936560133356
 20
42.92954658113178
  0
TEXT
  5
4381
330
42FE
100
AcDbEntity
  8
SUNPOUA
100
AcDbText
 10
208.329073804312
 20
21.99999993084976
 30
0.0
 40
3.0
  1
94.10.18
  7
CMP-SET
100
AcDbText
  0
TEXT
  5
4382
330
42FE
100
AcDbEntity
  8
SUNPOUA
100
AcDbText
 10
208.329073804312
 20
14.99999993084975
 30
0.0
 40
3.0
  1
94.10.18
  7
CMP-SET
100
AcDbText
  0
TEXT
  5
4383
330
42FE
100
AcDbEntity
  8
SUNPOUA
100
AcDbText
 10
208.329073804312
 20
7.999999930849753
 30
0.0
 40
3.0
  1
94.10.18
  7
CMP-SET
100
AcDbText
  0
LINE
  5
4384
330
42FE
100
AcDbEntity
  8
SUNPOU
100
AcDbLine
 10
213.0650112106054
 20
41.56917817559582
 30
0.0
 11
233.0650112106054
 21
41.56917817559582
 31
0.0
  0
LWPOLYLINE
  5
4385
330
42FE
100
AcDbEntity
  8
SUNPOUA
100
AcDbPolyline
 90
        3
 70
     1
 43
0.0
 10
202.1839023510801
 20
26.33012694977195
 10
199.68390235108
 20
21.99999993084976
 10
204.6839023510801
 20
21.99999993084976
  0
TEXT
  5
4386
330
42FE
100
AcDbEntity
  8
SUNPOUA
100
AcDbText
 10
201.2813867569708
 20
22.29999993084975
 30
0.0
 40
2.5
  1
3
  7
CMP-SET
100
AcDbText
  0
TEXT
  5
4387
330
42FE
100
AcDbEntity
  8
SUNPOUA
100
AcDbText
 10
201.2813867569708
 20
15.29999993084975
 30
0.0
 40
2.5
  1
2
  7
CMP-SET
100
AcDbText
  0
LWPOLYLINE
  5
4388
330
42FE
100
AcDbEntity
  8
SUNPOUA
100
AcDbPolyline
 90
        3
 70
     1
 43
0.0
 10
202.1839023510801
 20
19.33012694977195
 10
199.68390235108
 20
14.99999993084975
 10
204.6839023510801
 20
14.99999993084975
  0
LWPOLYLINE
  5
4389
330
42FE
100
AcDbEntity
  8
SUNPOUA
100
AcDbPolyline
 90
        3
 70
     1
 43
0.0
 10
202.1839023510801
 20
12.33012694977195
 10
199.68390235108
 20
7.999999930849753
 10
204.6839023510801
 20
7.999999930849753
  0
TEXT
  5
438A
330
42FE
100
AcDbEntity
  8
SUNPOUA
100
AcDbText
 10
201.6858131888418
 20
8.499999930849753
 30
0.0
 40
2.5
  1
1
  7
CMP-SET
100
AcDbText
  0
INSERT
  5
438B
330
42FE
100
AcDbEntity
  8
SUNPOU
100
AcDbBlockReference
  2
YAN2
 10
196.5650112106054
 20
41.56917817559582
 30
0.0
 41
3.75
 42
3.75
 43
3.75
 50
0.0000000000000027
  0
INSERT
  5
438C
330
42FE
100
AcDbEntity
  8
SUNPOU
100
AcDbBlockReference
  2
YAN2
 10
213.0650112106054
 20
41.56917817559582
 30
0.0
 41
3.75
 42
3.75
 43
3.75
 50
180.0
  0
TEXT
  5
438D
330
42FE
100
AcDbEntity
  8
SUNPOUA
100
AcDbText
 10
217.1955668510974
 20
43.42954658113177
 30
0.0
 40
2.5
  1
1
  7
CMP-SET
100
AcDbText
  0
TEXT
  5
438E
330
42FE
100
AcDbEntity
  8
SUNPOUA
100
AcDbText
 10
221.0412016867959
 20
42.81917817559582
 30
0.0
 40
2.5
  1
40
  7
CMP-SET
 72
     1
 11
223.0650112106054
 21
42.81917817559582
 31
0.0
100
AcDbText
  0
INSERT
  5
438F
330
42FE
100
AcDbEntity
  8
SUNPOU
100
AcDbBlockReference
  2
YAN2
 10
233.0650112106054
 20
41.56917817559582
 30
0.0
 41
3.75
 42
3.75
 43
3.75
 50
0.0000000000000204
  0
TEXT
  5
4390
330
42FE
100
AcDbEntity
  8
SUNPOUA
100
AcDbText
 10
269.05704138168
 20
0.9999999308497535
 30
0.0
 40
3.0
  1
承認
  7
CMP-SET
100
AcDbText
  0
TEXT
  5
4391
330
42FE
100
AcDbEntity
  8
SUNPOUA
100
AcDbText
 10
259.0570413816799
 20
0.9999999308497535
 30
0.0
 40
3.0
  1
担当
  7
CMP-SET
100
AcDbText
  0
LINE
  5
4392
330
42FE
100
AcDbEntity
  8
SUNPOUA
100
AcDbLine
 10
267.4999996189763
 20
-0.0000000691502464
 30
0.0
 11
267.4999996189763
 21
27.99999993084976
 31
0.0
  0
LINE
  5
4393
330
42FE
100
AcDbEntity
  8
SUNPOUA
100
AcDbLine
 10
257.4999996189763
 20
-0.0000000691502464
 30
0.0
 11
257.4999996189763
 21
27.99999993084976
 31
0.0
  0
TEXT
  5
4394
330
42FE
100
AcDbEntity
  8
SCALE
100
AcDbText
 10
278.6526149498088
 20
15.34591859531641
 30
0.0
 40
2.0
  1
91.10. 9
  7
CMP-SET
100
AcDbText
  0
TEXT
  5
4395
330
42FE
100
AcDbEntity
  8
SCALE
100
AcDbText
 10
280.5320978627889
 20
21.8742598551434
 30
0.0
 40
3.0
  1
竹永
  7
CMP-SET
100
AcDbText
  0
TEXT
  5
4396
330
42FE
100
AcDbEntity
  8
SUNPOUA
100
AcDbText
 10
259.0570413816799
 20
21.99999993084976
 30
0.0
 40
3.0
  1
竹永
  7
CMP-SET
100
AcDbText
  0
TEXT
  5
4397
330
42FE
100
AcDbEntity
  8
SUNPOUA
100
AcDbText
 10
259.0570413816799
 20
7.999999930849753
 30
0.0
 40
3.0
  1
竹永
  7
CMP-SET
100
AcDbText
  0
TEXT
  5
4398
330
42FE
100
AcDbEntity
  8
SUNPOUA
100
AcDbText
 10
259.0570413816799
 20
14.99999993084975
 30
0.0
 40
3.0
  1
竹永
  7
CMP-SET
100
AcDbText
  0
TEXT
  5
4399
330
42FE
100
AcDbEntity
  8
SCALE
100
AcDbText
 10
291.6526149498088
 20
15.34591859531641
 30
0.0
 40
2.0
  1
91.10. 9
  7
CMP-SET
100
AcDbText
  0
TEXT
  5
439A
330
42FE
100
AcDbEntity
  8
SCALE
100
AcDbText
 10
293.5320978627889
 20
21.8742598551434
 30
0.0
 40
3.0
  1
竹永
  7
CMP-SET
100
AcDbText
  0
TEXT
  5
439B
330
42FE
100
AcDbEntity
  8
SUNPOUA
100
AcDbText
 10
284.8571424761191
 20
9.499999930849753
 30
0.0
 40
2.5
  1
F/
  7
CMP-SET
 72
     1
 11
286.9999996189763
 21
9.499999930849753
 31
0.0
100
AcDbText
  0
TEXT
  5
439C
330
42FE
100
AcDbEntity
  8
SCALE
100
AcDbText
 10
292.9577359517375
 20
43.99999993084975
 30
0.0
 40
3.5
  1
三角ブラケット
 41
0.7048881750168912
  7
CMP-SET
 72
     5
 11
312.5301309447066
 21
43.99999993084975
 31
0.0
100
AcDbText
  0
LINE
  5
439D
330
42FE
100
AcDbEntity
  8
SUNPOU
100
AcDbLine
 10
243.0650112106054
 20
78.06917817559578
 30
0.0
 11
243.0650112106055
 21
103.0691781755957
 31
0.0
  0
ARC
  5
439E
330
42FE
100
AcDbEntity
  8
0
100
AcDbCircle
 10
222.3150112106054
 20
96.19417817559583
 30
0.0
 40
2.625
100
AcDbArc
 50
180.0
 51
0.0000000000000127
  0
LINE
  5
439F
330
42FE
100
AcDbEntity
  8
SUNPOU
100
AcDbLine
 10
216.0650112106054
 20
48.56917817559582
 30
0.0
 11
228.5650112106054
 21
48.56917817559582
 31
0.0
  0
LINE
  5
43A0
330
42FE
100
AcDbEntity
  8
CENTER
100
AcDbLine
 10
213.9438755879687
 20
78.06917817559583
 30
0.0
 11
233.0650112106054
 21
78.06917817559583
 31
0.0
  0
LINE
  5
43A1
330
42FE
100
AcDbEntity
  8
0
100
AcDbLine
 10
233.0650112106054
 20
65.56917817559583
 30
0.0
 11
216.0650112106054
 21
65.56917817559583
 31
0.0
  0
LINE
  5
43A2
330
42FE
100
AcDbEntity
  8
CENTER
100
AcDbLine
 10
216.0650112106054
 20
65.56917817559583
 30
0.0
 11
216.0650112106054
 21
88.6484754676467
 31
0.0
  0
LINE
  5
43A3
330
42FE
100
AcDbEntity
  8
0
100
AcDbLine
 10
196.5650112106054
 20
68.56917817559582
 30
0.0
 11
195.0650112106054
 21
68.56917817559582
 31
0.0
  0
TEXT
  5
43A4
330
42FE
100
AcDbEntity
  8
SUNPOUA
100
AcDbText
 10
208.9333072606385
 20
64.33154574483316
 30
0.0
 40
2.5
  1
R3
 50
39.38498403119562
  7
CMP-SET
 72
     1
 11
210.5435153771432
 21
65.65347902579714
 31
0.0
100
AcDbText
  0
LINE
  5
43A5
330
42FE
100
AcDbEntity
  8
SUNPOU
100
AcDbLine
 10
209.1367642547491
 20
62.88129215899471
 30
0.0
 11
216.0650112106054
 21
68.56917817559589
 31
0.0
  0
ARC
  5
43A6
330
42FE
100
AcDbEntity
  8
0
100
AcDbCircle
 10
216.0650112106054
 20
68.56917817559582
 30
0.0
 40
3.0
100
AcDbArc
 50
180.0
 51
270.0
  0
INSERT
  5
43A7
330
42FE
100
AcDbEntity
  8
SUNPOU
100
AcDbBlockReference
  2
YAN2
 10
213.7463115228387
 20
66.66559425100757
 30
0.0
 41
3.75
 42
3.75
 43
3.75
 50
219.3849840311989
  0
CIRCLE
  5
43A8
330
42FE
100
AcDbEntity
  8
0
100
AcDbCircle
 10
216.0650112106054
 20
78.06917817559583
 30
0.0
 40
0.95
  0
TEXT
  5
43A9
330
42FE
100
AcDbEntity
  8
SUNPOUA
100
AcDbText
 10
241.8150112106054
 20
69.79536865178636
 30
0.0
 40
2.5
  1
25
 50
90.0
  7
CMP-SET
 72
     1
 11
241.8150112106054
 21
71.81917817559588
 31
0.0
100
AcDbText
  0
LINE
  5
43AA
330
42FE
100
AcDbEntity
  8
SUNPOU
100
AcDbLine
 10
243.0650112106054
 20
65.56917817559583
 30
0.0
 11
243.0650112106054
 21
78.06917817559578
 31
0.0
  0
LINE
  5
43AB
330
42FE
100
AcDbEntity
  8
CENTER
100
AcDbLine
 10
228.5650112106054
 20
65.56917817559583
 30
0.0
 11
228.5650112106054
 21
88.96556757674112
 31
0.0
  0
LINE
  5
43AC
330
42FE
100
AcDbEntity
  8
0
100
AcDbLine
 10
219.6900112106054
 20
71.19417817559583
 30
0.0
 11
219.6900112106054
 21
84.94417817559583
 31
0.0
  0
LINE
  5
43AD
330
42FE
100
AcDbEntity
  8
0
100
AcDbLine
 10
224.9400112106054
 20
71.19417817559583
 30
0.0
 11
224.9400112106054
 21
84.94417817559583
 31
0.0
  0
LINE
  5
43AE
330
42FE
100
AcDbEntity
  8
SUNPOUN
100
AcDbLine
 10
222.3150112106054
 20
65.56917817559583
 30
0.0
 11
222.3150112106054
 21
53.89417817559584
 31
0.0
  0
TEXT
  5
43AF
330
42FE
100
AcDbEntity
  8
SUNPOUA
100
AcDbText
 10
224.1185826391768
 20
56.81917817559583
 30
0.0
 40
2.5
  1
21.5
  7
CMP-SET
 72
     1
 11
227.6900112106054
 21
56.81917817559583
 31
0.0
100
AcDbText
  0
LINE
  5
43B0
330
42FE
100
AcDbEntity
  8
SUNPOU
100
AcDbLine
 10
222.3150112106054
 20
55.56917817559583
 30
0.0
 11
233.0650112106054
 21
55.56917817559583
 31
0.0
  0
TEXT
  5
43B1
330
42FE
100
AcDbEntity
  8
SUNPOUA
100
AcDbText
 10
220.2912016867959
 20
49.81917817559582
 30
0.0
 40
2.5
  1
25
  7
CMP-SET
 72
     1
 11
222.3150112106054
 21
49.81917817559582
 31
0.0
100
AcDbText
  0
INSERT
  5
43B2
330
42FE
100
AcDbEntity
  8
SUNPOU
100
AcDbBlockReference
  2
YAN2
 10
222.3150112106054
 20
55.56917817559583
 30
0.0
 41
3.75
 42
3.75
 43
3.75
 50
180.0
  0
INSERT
  5
43B3
330
42FE
100
AcDbEntity
  8
SUNPOU
100
AcDbBlockReference
  2
YAN2
 10
233.0650112106054
 20
55.56917817559583
 30
0.0
 41
3.75
 42
3.75
 43
3.75
  0
LWPOLYLINE
  5
43B4
330
42FE
100
AcDbEntity
  8
SUNPOUA
100
AcDbPolyline
 90
        3
 70
     1
 43
0.0
 10
225.5597501132279
 20
64.37580768761641
 10
223.0597501132279
 20
60.04568066869421
 10
228.0597501132278
 20
60.04568066869421
  0
TEXT
  5
43B5
330
42FE
100
AcDbEntity
  8
SUNPOUA
100
AcDbText
 10
224.6572345191186
 20
60.34568066869422
 30
0.0
 40
2.5
  1
2
  7
CMP-SET
100
AcDbText
  0
ARC
  5
43B6
330
42FE
100
AcDbEntity
  8
0
100
AcDbCircle
 10
222.3150112106054
 20
71.19417817559583
 30
0.0
 40
2.625
100
AcDbArc
 50
180.0
 51
0.0000000000000127
  0
LINE
  5
43B7
330
42FE
100
AcDbEntity
  8
SUNPOUN
100
AcDbLine
 10
228.5650112106053
 20
65.56917817559583
 30
0.0
 11
228.5650112106053
 21
59.93732177199557
 31
0.0
  0
LINE
  5
43B8
330
42FE
100
AcDbEntity
  8
SUNPOUN
100
AcDbLine
 10
235.5650112106054
 20
65.56917817559593
 30
0.0
 11
244.7400112106054
 21
65.56917817559593
 31
0.0
  0
INSERT
  5
43B9
330
42FE
100
AcDbEntity
  8
SUNPOU
100
AcDbBlockReference
  2
YAN2
 10
243.0650112106054
 20
65.56917817559583
 30
0.0
 41
3.75
 42
3.75
 43
3.75
 50
270.0
  0
LINE
  5
43BA
330
42FE
100
AcDbEntity
  8
SUNPOUN
100
AcDbLine
 10
233.0650112106054
 20
78.06917817559578
 30
0.0
 11
244.7400112106054
 21
78.06917817559581
 31
0.0
  0
CIRCLE
  5
43BB
330
42FE
100
AcDbEntity
  8
0
100
AcDbCircle
 10
228.5650112106054
 20
78.06917817559583
 30
0.0
 40
0.95
  0
ARC
  5
43BC
330
42FE
100
AcDbEntity
  8
0
100
AcDbCircle
 10
222.3150112106054
 20
84.94417817559583
 30
0.0
 40
2.625
100
AcDbArc
 50
0.0
 51
180.0
  0
INSERT
  5
43BD
330
42FE
100
AcDbEntity
  8
SUNPOU
100
AcDbBlockReference
  2
YAN2
 10
243.0650112106054
 20
78.06917817559578
 30
0.0
 41
3.75
 42
3.75
 43
3.75
 50
90.0
  0
INSERT
  5
43BE
330
42FE
100
AcDbEntity
  8
SUNPOU
100
AcDbBlockReference
  2
YAN2
 10
243.0650112106054
 20
78.06917817559578
 30
0.0
 41
3.75
 42
3.75
 43
3.75
 50
269.9999999999998
  0
TEXT
  5
43BF
330
42FE
100
AcDbEntity
  8
SUNPOUA
100
AcDbText
 10
241.8150112106054
 20
88.54536865178637
 30
0.0
 40
2.5
  1
50
 50
90.0
  7
CMP-SET
 72
     1
 11
241.8150112106054
 21
90.5691781755959
 31
0.0
100
AcDbText
  0
LINE
  5
43C0
330
42FE
100
AcDbEntity
  8
CENTER
100
AcDbLine
 10
213.9438755879687
 20
103.0691781755958
 30
0.0
 11
233.0650112106054
 21
103.0691781755958
 31
0.0
  0
CIRCLE
  5
43C1
330
42FE
100
AcDbEntity
  8
0
100
AcDbCircle
 10
216.0650112106054
 20
103.0691781755958
 30
0.0
 40
0.95
  0
CIRCLE
  5
43C2
330
42FE
100
AcDbEntity
  8
0
100
AcDbCircle
 10
216.0650112106054
 20
128.0691781755958
 30
0.0
 40
0.95
  0
LINE
  5
43C3
330
42FE
100
AcDbEntity
  8
SUNPOUN
100
AcDbLine
 10
233.0650112106054
 20
103.0691781755957
 30
0.0
 11
244.7400112106054
 21
103.0691781755958
 31
0.0
  0
LINE
  5
43C4
330
42FE
100
AcDbEntity
  8
0
100
AcDbLine
 10
224.9400112106054
 20
96.19417817559583
 30
0.0
 11
224.9400112106054
 21
109.9441781755958
 31
0.0
  0
LINE
  5
43C5
330
42FE
100
AcDbEntity
  8
0
100
AcDbLine
 10
219.6900112106054
 20
96.19417817559583
 30
0.0
 11
219.6900112106054
 21
109.9441781755958
 31
0.0
  0
CIRCLE
  5
43C6
330
42FE
100
AcDbEntity
  8
0
100
AcDbCircle
 10
228.5650112106054
 20
103.0691781755958
 30
0.0
 40
0.95
  0
ARC
  5
43C7
330
42FE
100
AcDbEntity
  8
0
100
AcDbCircle
 10
222.3150112106054
 20
109.9441781755958
 30
0.0
 40
2.625
100
AcDbArc
 50
0.0
 51
180.0
  0
INSERT
  5
43C8
330
42FE
100
AcDbEntity
  8
SUNPOU
100
AcDbBlockReference
  2
YAN2
 10
243.0650112106055
 20
103.0691781755957
 30
0.0
 41
3.75
 42
3.75
 43
3.75
 50
89.99999999999987
  0
LINE
  5
43C9
330
42FE
100
AcDbEntity
  8
0
100
AcDbLine
 10
224.9400112106054
 20
121.1941781755958
 30
0.0
 11
224.9400112106054
 21
134.9441781755958
 31
0.0
  0
LINE
  5
43CA
330
42FE
100
AcDbEntity
  8
0
100
AcDbLine
 10
219.6900112106054
 20
121.1941781755958
 30
0.0
 11
219.6900112106054
 21
134.9441781755958
 31
0.0
  0
ARC
  5
43CB
330
42FE
100
AcDbEntity
  8
0
100
AcDbCircle
 10
222.3150112106054
 20
121.1941781755958
 30
0.0
 40
2.625
100
AcDbArc
 50
180.0
 51
0.0000000000000127
  0
CIRCLE
  5
43CC
330
42FE
100
AcDbEntity
  8
0
100
AcDbCircle
 10
228.5650112106054
 20
128.0691781755958
 30
0.0
 40
0.95
  0
ARC
  5
43CD
330
42FE
100
AcDbEntity
  8
0
100
AcDbCircle
 10
222.3150112106054
 20
134.9441781755958
 30
0.0
 40
2.625
100
AcDbArc
 50
0.0
 51
180.0
  0
TEXT
  5
43CE
330
42FE
100
AcDbEntity
  8
SCALE
100
AcDbText
 10
288.6915880003982
 20
136.6938755010719
 30
0.0
 40
3.5
  1
TB-1Y45
 41
0.8807737887524938
  7
CMP-SET
 72
     5
 11
308.5089982473293
 21
136.6938755010719
 31
0.0
100
AcDbText
  0
TEXT
  5
43CF
330
42FE
100
AcDbEntity
  8
SUNPOUA
100
AcDbText
 10
363.3937980685907
 20
47.99999993084975
 30
0.0
 40
3.0
  1
溶融亜鉛メッキ
 41
0.9499647639182644
  7
CMP-SET
 72
     5
 11
386.3829453554127
 21
47.99999993084975
 31
0.0
100
AcDbText
  0
TEXT
  5
43D0
330
42FE
100
AcDbEntity
  8
SUNPOUA
100
AcDbText
 10
363.114285333262
 20
43.99999993084975
 30
0.0
 40
3.0
  1
（Z35 相当）
  7
CMP-SET
 72
     1
 11
374.9999996189763
 21
43.99999993084975
 31
0.0
100
AcDbText
  0
TEXT
  5
43D1
330
42FE
100
AcDbEntity
  8
SUNPOUA
100
AcDbText
 10
340.0656290081898
 20
18.99999993084975
 30
0.0
 40
3.5
  1
［ TB-1Y（30・45）］
 41
0.8638677400086079
  7
CMP-SET
 72
     5
 11
383.4605851479555
 21
18.99999993084975
 31
0.0
100
AcDbText
  0
TEXT
  5
43D2
330
42FE
100
AcDbEntity
  8
SUNPOUA
100
AcDbText
 10
339.2567761444476
 20
8.999999930849753
 30
0.0
 40
3.5
  1
RD-911009-SC017
 41
0.9342659087769044
  7
CMP-SET
 72
     5
 11
385.5029386289044
 21
8.999999930849753
 31
0.0
100
AcDbText
  0
TEXT
  5
43D3
330
42FE
100
AcDbEntity
  8
SUNPOUA
100
AcDbText
 10
348.616666285643
 20
25.99999993084975
 30
0.0
 40
3.5
  1
三角ブラケット
  7
CMP-SET
 72
     1
 11
362.4999996189763
 21
25.99999993084975
 31
0.0
100
AcDbText
  0
LINE
  5
43D4
330
42FE
100
AcDbEntity
  8
SCALE
100
AcDbLine
 10
342.8399591260129
 20
46.67951075294017
 30
0.0
 11
358.3912214216046
 21
46.67951075294017
 31
0.0
  0
TEXT
  5
43D5
330
42FE
100
AcDbEntity
  8
SCALE
100
AcDbText
 10
316.2918357261241
 20
43.99999993084975
 30
0.0
 40
3.5
  1
SPH (t=3)
 41
0.7703319343634655
  7
CMP-SET
 72
     5
 11
336.3974992130105
 21
43.99999993084975
 31
0.0
100
AcDbText
  0
TEXT
  5
43D6
330
42FE
100
AcDbEntity
  8
SUNPOUA
100
AcDbText
 10
316.6491415908211
 20
48.64283618121896
 30
0.0
 40
2.5
  1
3
  7
CMP-SET
100
AcDbText
  0
TEXT
  5
43D7
330
42FE
100
AcDbEntity
  8
SCALE
100
AcDbText
 10
333.4321600844385
 20
136.6938755010719
 30
0.0
 40
3.5
  1
片面 18
  7
CMP-SET
100
AcDbText
  0
TEXT
  5
43D8
330
42FE
100
AcDbEntity
  8
SCALE
100
AcDbText
 10
354.1527931843269
 20
136.6938755010719
 30
0.0
 40
3.5
  1
片面  9
  7
CMP-SET
100
AcDbText
  0
TEXT
  5
43D9
330
42FE
100
AcDbEntity
  8
SCALE
100
AcDbText
 10
288.9526519066721
 20
220.626152507769
 30
0.0
 40
2.5
  1
※）字ノ寸法ハ全ベテ16Pトスル
  7
CMP-SET
100
AcDbText
  0
LINE
  5
43DA
330
42FE
100
AcDbEntity
  8
SCALE
100
AcDbLine
 10
287.9964320049098
 20
219.3577840713912
 30
0.0
 11
336.9756416832353
 21
219.3577840713912
 31
0.0
  0
LINE
  5
43DB
330
42FE
100
AcDbEntity
  8
SCALE
100
AcDbLine
 10
307.2672442481579
 20
235.4579248070993
 30
0.0
 11
339.9695743210935
 21
235.4579248070993
 31
0.0
  0
TEXT
  5
43DC
330
42FE
100
AcDbEntity
  8
SCALE
100
AcDbText
 10
310.7695211136154
 20
231.2924875558132
 30
0.0
 40
2.5
  1
（字体－中丸ゴシック体）
 41
0.7994788390526628
  7
CMP-SET
 72
     5
 11
337.951801641406
 21
231.2924875558132
 31
0.0
100
AcDbText
  0
TEXT
  5
43DD
330
42FE
100
AcDbEntity
  8
SCALE
100
AcDbText
 10
311.2883769455351
 20
235.8759098599965
 30
0.0
 40
2.5
  1
刻印「ＴＢ－１Ｙ（３０・４５）」
 41
0.5909191419084907
  7
CMP-SET
 72
     5
 11
338.4706574733257
 21
235.8759098599965
 31
0.0
100
AcDbText
  0
LINE
  5
43DE
330
42FE
100
AcDbEntity
  8
SCALE
100
AcDbLine
 10
322.3428886978232
 20
256.2562845081572
 30
0.0
 11
307.2672442481579
 21
235.4579248070993
 31
0.0
  0
LINE
  5
43DF
330
42FE
100
AcDbEntity
  8
SCALE
  6
PHANTOM
100
AcDbLine
 10
345.4896238662387
 20
257.6072502462917
 30
0.0
 11
316.1742693627786
 21
257.6072502462916
 31
0.0
  0
LINE
  5
43E0
330
42FE
100
AcDbEntity
  8
0
100
AcDbLine
 10
301.4627657412055
 20
267.6072502462917
 30
0.0
 11
359.9045509313703
 21
267.6072502462917
 31
0.0
  0
LINE
  5
43E1
330
42FE
100
AcDbEntity
  8
0
100
AcDbLine
 10
295.5361974340887
 20
247.6072502462917
 30
0.0
 11
333.9045509313701
 21
247.6072502462918
 31
0.0
  0
LINE
  5
43E2
330
42FE
100
AcDbEntity
  8
SCALE
100
AcDbLine
 10
286.2558481227754
 20
151.6938755010719
 30
0.0
 11
371.2558481227755
 21
151.6938755010719
 31
0.0
  0
LINE
  5
43E3
330
42FE
100
AcDbEntity
  8
SCALE
100
AcDbLine
 10
286.2558481227754
 20
143.6938755010719
 30
0.0
 11
371.2558481227755
 21
143.6938755010719
 31
0.0
  0
LINE
  5
43E4
330
42FE
100
AcDbEntity
  8
SCALE
100
AcDbLine
 10
371.2558481227755
 20
159.6938755010719
 30
0.0
 11
286.2558481227754
 21
159.6938755010719
 31
0.0
  0
LINE
  5
43E5
330
42FE
100
AcDbEntity
  8
SCALE
100
AcDbLine
 10
203.0814151040771
 20
235.0691781755958
 30
0.0
 11
216.0650112106054
 21
222.1046706216427
 31
0.0
  0
TEXT
  5
43E6
330
42FE
100
AcDbEntity
  8
SCALE
100
AcDbText
 10
204.6620235493004
 20
234.8856181091174
 30
0.0
 40
3.5
  1
左右対称
 50
315.0
  7
CMP-SET
 72
     1
 11
210.2717373467137
 21
229.2759043117041
 31
0.0
100
AcDbText
  0
LINE
  5
43E7
330
42FE
100
AcDbEntity
  8
0
100
AcDbLine
 10
196.5650112106054
 20
252.0691781755958
 30
0.0
 11
196.5650112106054
 21
232.0691781755959
 31
0.0
  0
LINE
  5
43E8
330
42FE
100
AcDbEntity
  8
0
100
AcDbLine
 10
195.0650112106054
 20
252.0691781755958
 30
0.0
 11
195.0650112106054
 21
232.0691781755958
 31
0.0
  0
LINE
  5
43E9
330
42FE
100
AcDbEntity
  8
SCALE
100
AcDbLine
 10
248.5201507930232
 20
172.2094528528741
 30
0.0
 11
255.5247045239384
 21
174.9768021686074
 31
0.0
  0
LINE
  5
43EA
330
42FE
100
AcDbEntity
  8
SCALE
100
AcDbLine
 10
265.2964893584252
 20
172.2094528528741
 30
0.0
 11
248.5201507930232
 21
172.2094528528741
 31
0.0
  0
TEXT
  5
43EB
330
42FE
100
AcDbEntity
  8
SCALE
100
AcDbText
 10
245.2662374011228
 20
199.6451269283863
 30
0.0
 40
2.5
  1
B-φ10.5×38L 貫通穴
  7
CMP-SET
100
AcDbText
  0
LINE
  5
43EC
330
42FE
100
AcDbEntity
  8
SCALE
100
AcDbLine
 10
242.9746241434777
 20
197.8290539399363
 30
0.0
 11
284.0651234991144
 21
197.8290539399363
 31
0.0
  0
TEXT
  5
43ED
330
42FE
100
AcDbEntity
  8
SCALE
100
AcDbText
 10
245.626553951067
 20
216.508661821136
 30
0.0
 40
2.5
  1
(φ4 タッピング下穴)
  7
CMP-SET
100
AcDbText
  0
TEXT
  5
43EE
330
42FE
100
AcDbEntity
  8
SCALE
100
AcDbText
 10
245.2662374011228
 20
221.582135566647
 30
0.0
 40
2.5
  1
A-φ3.8 貫通穴
  7
CMP-SET
100
AcDbText
  0
LINE
  5
43EF
330
42FE
100
AcDbEntity
  8
SCALE
100
AcDbLine
 10
243.2196393974397
 20
220.4867264625026
 30
0.0
 11
274.9130831305317
 21
220.4867264625026
 31
0.0
  0
LINE
  5
43F0
330
42FE
100
AcDbEntity
  8
SCALE
100
AcDbLine
 10
224.9400112106055
 20
180.36016138437
 30
0.0
 11
242.9746241434777
 21
197.8290539399363
 31
0.0
  0
ARC
  5
43F1
330
42FE
100
AcDbEntity
  8
0
100
AcDbCircle
 10
222.3150112106055
 20
184.9441781755958
 30
0.0
 40
2.625
100
AcDbArc
 50
0.0
 51
180.0
  0
CIRCLE
  5
43F2
330
42FE
100
AcDbEntity
  8
0
100
AcDbCircle
 10
216.0650112106054
 20
153.0691781755958
 30
0.0
 40
0.95
  0
CIRCLE
  5
43F3
330
42FE
100
AcDbEntity
  8
0
100
AcDbCircle
 10
216.0650112106054
 20
178.0691781755958
 30
0.0
 40
0.95
  0
CIRCLE
  5
43F4
330
42FE
100
AcDbEntity
  8
0
100
AcDbCircle
 10
228.5650112106054
 20
153.0691781755958
 30
0.0
 40
0.95
  0
LINE
  5
43F5
330
42FE
100
AcDbEntity
  8
0
100
AcDbLine
 10
219.6900112106054
 20
146.1941781755958
 30
0.0
 11
219.6900112106054
 21
159.9441781755958
 31
0.0
  0
LINE
  5
43F6
330
42FE
100
AcDbEntity
  8
0
100
AcDbLine
 10
224.9400112106054
 20
146.1941781755958
 30
0.0
 11
224.9400112106054
 21
159.9441781755958
 31
0.0
  0
ARC
  5
43F7
330
42FE
100
AcDbEntity
  8
0
100
AcDbCircle
 10
222.3150112106054
 20
146.1941781755958
 30
0.0
 40
2.625
100
AcDbArc
 50
180.0
 51
0.0000000000000127
  0
ARC
  5
43F8
330
42FE
100
AcDbEntity
  8
0
100
AcDbCircle
 10
222.3150112106054
 20
159.9441781755958
 30
0.0
 40
2.625
100
AcDbArc
 50
0.0
 51
180.0
  0
LINE
  5
43F9
330
42FE
100
AcDbEntity
  8
0
100
AcDbLine
 10
224.9400112106055
 20
171.1941781755958
 30
0.0
 11
224.9400112106055
 21
184.9441781755958
 31
0.0
  0
LINE
  5
43FA
330
42FE
100
AcDbEntity
  8
0
100
AcDbLine
 10
219.6900112106054
 20
171.1941781755958
 30
0.0
 11
219.6900112106054
 21
184.9441781755958
 31
0.0
  0
ARC
  5
43FB
330
42FE
100
AcDbEntity
  8
0
100
AcDbCircle
 10
222.3150112106055
 20
171.1941781755958
 30
0.0
 40
2.625
100
AcDbArc
 50
180.0
 51
0.0000000000000127
  0
CIRCLE
  5
43FC
330
42FE
100
AcDbEntity
  8
0
100
AcDbCircle
 10
228.5650112106055
 20
178.0691781755958
 30
0.0
 40
0.95
  0
LINE
  5
43FD
330
42FE
100
AcDbEntity
  8
0
100
AcDbLine
 10
233.0650112106054
 20
214.0691781755958
 30
0.0
 11
213.0650112106054
 21
214.0691781755958
 31
0.0
  0
LINE
  5
43FE
330
42FE
100
AcDbEntity
  8
0
100
AcDbLine
 10
233.0650112106054
 20
215.5691781755959
 30
0.0
 11
213.0650112106054
 21
215.5691781755959
 31
0.0
  0
LINE
  5
43FF
330
42FE
100
AcDbEntity
  8
SCALE
100
AcDbLine
 10
195.0650112106054
 20
214.0691781755958
 30
0.0
 11
189.1145062578184
 21
203.1331401284251
 31
0.0
  0
LINE
  5
4400
330
42FE
100
AcDbEntity
  8
SCALE
100
AcDbLine
 10
189.1145062578184
 20
203.1331401284251
 30
0.0
 11
203.4551049455977
 21
203.1331401284251
 31
0.0
  0
TEXT
  5
4401
330
42FE
100
AcDbEntity
  8
SCALE
100
AcDbText
 10
199.3619089382315
 20
204.7041873962112
 30
0.0
 40
2.5
  1
X
  7
CMP-SET
100
AcDbText
  0
CIRCLE
  5
4402
330
42FE
100
AcDbEntity
  8
0
100
AcDbCircle
 10
216.0650112106054
 20
203.0691781755958
 30
0.0
 40
0.95
  0
LINE
  5
4403
330
42FE
100
AcDbEntity
  8
SCALE
100
AcDbLine
 10
229.2392708472121
 20
203.7384120229489
 30
0.0
 11
243.2196393974397
 21
220.4867264625026
 31
0.0
  0
ARC
  5
4404
330
42FE
100
AcDbEntity
  8
0
100
AcDbCircle
 10
222.3150112106055
 20
209.9441781755958
 30
0.0
 40
2.625
100
AcDbArc
 50
0.0
 51
180.0
  0
LINE
  5
4405
330
42FE
100
AcDbEntity
  8
0
100
AcDbLine
 10
219.6900112106054
 20
196.1941781755958
 30
0.0
 11
219.6900112106054
 21
209.9441781755958
 31
0.0
  0
LINE
  5
4406
330
42FE
100
AcDbEntity
  8
0
100
AcDbLine
 10
224.9400112106055
 20
196.1941781755958
 30
0.0
 11
224.9400112106055
 21
209.9441781755958
 31
0.0
  0
ARC
  5
4407
330
42FE
100
AcDbEntity
  8
0
100
AcDbCircle
 10
222.3150112106055
 20
196.1941781755958
 30
0.0
 40
2.625
100
AcDbArc
 50
180.0
 51
0.0000000000000127
  0
CIRCLE
  5
4408
330
42FE
100
AcDbEntity
  8
0
100
AcDbCircle
 10
228.5650112106055
 20
203.0691781755958
 30
0.0
 40
0.95
  0
TEXT
  5
4409
330
42FE
100
AcDbEntity
  8
SCALE
100
AcDbText
 10
260.8429768011149
 20
173.9102196198352
 30
0.0
 40
3.5
  1
Y
  7
CMP-SET
100
AcDbText
  0
LINE
  5
440A
330
42FE
100
AcDbEntity
  8
SCALE
100
AcDbLine
 10
255.5247045239384
 20
174.9768021686074
 30
0.0
 11
255.5247045239384
 21
169.6583027024325
 31
0.0
  0
LINE
  5
440B
330
42FE
100
AcDbEntity
  8
SUNPOUA
100
AcDbLine
 10
286.2558481227754
 20
159.6938755010719
 30
0.0
 11
311.2558481227754
 21
151.6938755010719
 31
0.0
  0
TEXT
  5
440C
330
42FE
100
AcDbEntity
  8
SCALE
100
AcDbText
 10
288.6915880003982
 20
144.6938755010719
 30
0.0
 40
3.5
  1
TB-1Y30
 41
0.8807737887524936
  7
CMP-SET
 72
     5
 11
308.5089982473293
 21
144.6938755010719
 31
0.0
100
AcDbText
  0
ARC
  5
440D
330
42FE
100
AcDbEntity
  8
0
100
AcDbCircle
 10
190.9400112106054
 20
241.3191781755958
 30
0.0
 40
2.625
100
AcDbArc
 50
270.0000000000001
 51
90.00000000000003
  0
LINE
  5
440E
330
42FE
100
AcDbEntity
  8
SCALE
  6
PHANTOM
100
AcDbLine
 10
303.0706268978891
 20
271.1262477263221
 30
0.0
 11
293.8135892541558
 21
242.2300657311836
 31
0.0
  0
LINE
  5
440F
330
42FE
100
AcDbEntity
  8
SCALE
  6
PHANTOM
100
AcDbLine
 10
351.4045509313701
 20
253.3125829943815
 30
0.0
 11
351.4045509313701
 21
224.8463595643126
 31
0.0
  0
TEXT
  5
4410
330
42FE
100
AcDbEntity
  8
SCALE
100
AcDbText
 10
350.0712175980368
 20
246.8342155927644
 30
0.0
 40
2.5
  1
ＩＮＡＢＡ
 50
270.0
  7
CMP-SET
 72
     4
 11
351.4045509313701
 21
239.2508822594311
 31
0.0
100
AcDbText
  0
LINE
  5
4411
330
42FE
100
AcDbEntity
  8
0
100
AcDbLine
 10
361.4045509313701
 20
266.1072502462916
 30
0.0
 11
361.4045509313702
 21
201.7268229968285
 31
0.0
  0
LINE
  5
4412
330
42FE
100
AcDbEntity
  8
0
100
AcDbLine
 10
341.4045509313701
 20
207.4665803757168
 30
0.0
 11
341.4045509313701
 21
240.1072502462918
 31
0.0
  0
TEXT
  5
4413
330
42FE
100
AcDbEntity
  8
SCALE
100
AcDbText
 10
327.5159512027899
 20
185.8613267288696
 30
0.0
 40
3.5
  1
矢　視　Y
  7
CMP-SET
100
AcDbText
  0
TEXT
  5
4414
330
42FE
100
AcDbEntity
  8
SCALE
100
AcDbText
 10
316.4444064419719
 20
144.6938755010719
 30
0.0
 40
3.5
  1
300
  7
CMP-SET
100
AcDbText
  0
TEXT
  5
4415
330
42FE
100
AcDbEntity
  8
SCALE
100
AcDbText
 10
319.4710654615032
 20
152.6938755010719
 30
0.0
 40
3.5
  1
L
  7
CMP-SET
100
AcDbText
  0
TEXT
  5
4416
330
42FE
100
AcDbEntity
  8
SCALE
100
AcDbText
 10
333.4321600844385
 20
144.6938755010719
 30
0.0
 40
3.5
  1
片面 12
  7
CMP-SET
100
AcDbText
  0
TEXT
  5
4417
330
42FE
100
AcDbEntity
  8
SCALE
100
AcDbText
 10
339.4710654615032
 20
152.6938755010719
 30
0.0
 40
3.5
  1
A
  7
CMP-SET
100
AcDbText
  0
LINE
  5
4418
330
42FE
100
AcDbEntity
  8
SCALE
100
AcDbLine
 10
326.1035103270085
 20
184.3911724048863
 30
0.0
 11
348.8466909594865
 21
184.3911724048863
 31
0.0
  0
TEXT
  5
4419
330
42FE
100
AcDbEntity
  8
SCALE
100
AcDbText
 10
354.1527931843269
 20
144.6938755010719
 30
0.0
 40
3.5
  1
片面  6
  7
CMP-SET
100
AcDbText
  0
TEXT
  5
441A
330
42FE
100
AcDbEntity
  8
SCALE
100
AcDbText
 10
359.4710654615032
 20
152.6938755010719
 30
0.0
 40
3.5
  1
B
  7
CMP-SET
100
AcDbText
  0
LINE
  5
441B
330
42FE
100
AcDbEntity
  8
SCALE
  6
PHANTOM
100
AcDbLine
 10
336.5992857718972
 20
208.9574482760736
 30
0.0
 11
364.7612128316128
 21
200.2200088898727
 31
0.0
  0
LINE
  5
441C
330
42FE
100
AcDbEntity
  8
SCALE
100
AcDbLine
 10
364.0525909432479
 20
239.5950450633353
 30
0.0
 11
384.0141278101567
 21
239.5950450633353
 31
0.0
  0
TEXT
  5
441D
330
42FE
100
AcDbEntity
  8
SCALE
100
AcDbText
 10
365.537095129018
 20
240.6616276121075
 30
0.0
 40
2.5
  1
刻印指定ロゴ
  7
CMP-SET
100
AcDbText
  0
LINE
  5
441E
330
42FE
100
AcDbEntity
  8
SUNPOU
100
AcDbLine
 10
341.4045509313702
 20
272.6072502462918
 30
0.0
 11
361.4045509313701
 21
272.6072502462918
 31
0.0
  0
LINE
  5
441F
330
42FE
100
AcDbEntity
  8
SCALE
  6
PHANTOM
100
AcDbLine
 10
344.0182954789076
 20
247.6072502462918
 30
0.0
 11
364.5944182236295
 21
247.6072502462918
 31
0.0
  0
TEXT
  5
4420
330
42FE
100
AcDbEntity
  8
SCALE
100
AcDbText
 10
320.6246159372846
 20
256.3572502462916
 30
0.0
 40
2.5
  1
ＴＢ－１Ｙ３０
  7
CMP-SET
 72
     4
 11
330.6246159372845
 21
257.6072502462916
 31
0.0
100
AcDbText
  0
LINE
  5
4421
330
42FE
100
AcDbEntity
  8
SCALE
  6
PHANTOM
100
AcDbLine
 10
341.4045509313702
 20
269.595185886938
 30
0.0
 11
341.4045509313702
 21
249.0634718230732
 31
0.0
  0
ARC
  5
4422
330
42FE
100
AcDbEntity
  8
0
100
AcDbCircle
 10
333.9045509313701
 20
240.1072502462918
 30
0.0
 40
7.5
100
AcDbArc
 50
0.0000000000000254
 51
89.99999999999994
  0
INSERT
  5
4423
330
42FE
100
AcDbEntity
  8
SUNPOU
100
AcDbBlockReference
  2
YAN2
 10
341.4045509313702
 20
272.6072502462918
 30
0.0
 41
3.75
 42
3.75
 43
3.75
 50
179.9999999999998
  0
LINE
  5
4424
330
42FE
100
AcDbEntity
  8
SUNPOUN
100
AcDbLine
 10
341.4045509313703
 20
269.595185886938
 30
0.0
 11
341.4045509313702
 21
274.2822502462917
 31
0.0
  0
TEXT
  5
4425
330
42FE
100
AcDbEntity
  8
SUNPOUA
100
AcDbText
 10
365.1545509313701
 20
255.5834407224822
 30
0.0
 40
2.5
  1
40
 50
90.0
  7
CMP-SET
 72
     1
 11
365.1545509313701
 21
257.6072502462917
 31
0.0
100
AcDbText
  0
LINE
  5
4426
330
42FE
100
AcDbEntity
  8
SUNPOU
100
AcDbLine
 10
366.4045509313703
 20
247.6072502462915
 30
0.0
 11
366.4045509313703
 21
267.6072502462916
 31
0.0
  0
LINE
  5
4427
330
42FE
100
AcDbEntity
  8
SUNPOUN
100
AcDbLine
 10
367.0944182236295
 20
247.6072502462919
 30
0.0
 11
364.5944182236296
 21
247.6072502462917
 31
0.0
  0
LINE
  5
4428
330
42FE
100
AcDbEntity
  8
SCALE
100
AcDbLine
 10
353.2286817829241
 20
234.2909588748465
 30
0.0
 11
364.0525909432479
 21
239.5950450633353
 31
0.0
  0
INSERT
  5
4429
330
42FE
100
AcDbEntity
  8
SUNPOU
100
AcDbBlockReference
  2
YAN2
 10
366.4045509313703
 20
247.6072502462915
 30
0.0
 41
3.75
 42
3.75
 43
3.75
 50
270.0000000000001
  0
LINE
  5
442A
330
42FE
100
AcDbEntity
  8
SUNPOUN
100
AcDbLine
 10
360.7196895414588
 20
267.6072502462917
 30
0.0
 11
368.0795509313701
 21
267.6072502462917
 31
0.0
  0
LINE
  5
442B
330
42FE
100
AcDbEntity
  8
SUNPOUN
100
AcDbLine
 10
361.4045509313701
 20
266.9163614031098
 30
0.0
 11
361.4045509313702
 21
274.2822502462918
 31
0.0
  0
LINE
  5
442C
330
42FE
100
AcDbEntity
  8
0
100
AcDbLine
 10
361.4045509313701
 20
266.1072502462916
 30
0.0
 11
359.9045509313701
 21
266.1072502462916
 31
0.0
  0
LINE
  5
442D
330
42FE
100
AcDbEntity
  8
0
100
AcDbLine
 10
359.9045509313701
 20
267.6072502462917
 30
0.0
 11
359.9045509313701
 21
266.1072502462916
 31
0.0
  0
TEXT
  5
442E
330
42FE
100
AcDbEntity
  8
SUNPOUA
100
AcDbText
 10
349.3807414075607
 20
273.8572502462917
 30
0.0
 40
2.5
  1
40
  7
CMP-SET
 72
     1
 11
351.4045509313702
 21
273.8572502462917
 31
0.0
100
AcDbText
  0
INSERT
  5
442F
330
42FE
100
AcDbEntity
  8
SUNPOU
100
AcDbBlockReference
  2
YAN2
 10
361.4045509313701
 20
272.6072502462918
 30
0.0
 41
3.75
 42
3.75
 43
3.75
 50
359.9999999999998
  0
INSERT
  5
4430
330
42FE
100
AcDbEntity
  8
SUNPOU
100
AcDbBlockReference
  2
YAN2
 10
366.4045509313703
 20
267.6072502462916
 30
0.0
 41
3.75
 42
3.75
 43
3.75
 50
90.00000000000019
  0
ENDBLK
  5
4432
330
42FE
100
AcDbEntity
  8
0
 48
2.0
100
AcDbBlockEnd
  0
ENDSEC
  0
SECTION
  2
ENTITIES
  0
LINE
  5
462E
330
17
100
AcDbEntity
  8
C4
100
AcDbLine
 10
582.093402047409
 20
209.5365965841649
 30
0.0
 11
876.093402047409
 21
209.5365965841649
 31
0.0
  0
LINE
  5
462F
330
17
100
AcDbEntity
  8
C6
  6
CENTER
 48
5.0
100
AcDbLine
 10
566.0934020474088
 20
228.0365965841649
 30
0.0
 11
886.0934020474088
 21
228.0365965841649
 31
0.0
  0
LINE
  5
4630
330
17
100
AcDbEntity
  8
C4
100
AcDbLine
 10
837.3434020474089
 20
233.286596584165
 30
0.0
 11
864.8434020474089
 21
233.286596584165
 31
0.0
  0
LINE
  5
4631
330
17
100
AcDbEntity
  8
C4
100
AcDbLine
 10
837.3434020474089
 20
222.786596584165
 30
0.0
 11
864.8434020474089
 21
222.786596584165
 31
0.0
  0
CIRCLE
  5
4632
330
17
100
AcDbEntity
  8
C4
100
AcDbCircle
 10
851.093402047409
 20
215.5365965841649
 30
0.0
 40
1.9
  0
CIRCLE
  5
4633
330
17
100
AcDbEntity
  8
C4
100
AcDbCircle
 10
851.093402047409
 20
240.5365965841649
 30
0.0
 40
1.9
  0
LINE
  5
4635
330
17
100
AcDbEntity
  8
C4
100
AcDbLine
 10
576.0934020474089
 20
249.5365965841649
 30
0.0
 11
873.0934020474089
 21
249.5365965841649
 31
0.0
  0
LINE
  5
4636
330
17
100
AcDbEntity
  8
C4
100
AcDbLine
 10
576.0934020474089
 20
173.5365965841649
 30
0.0
 11
876.093402047409
 21
173.5365965841649
 31
0.0
  0
LINE
  5
4637
330
17
100
AcDbEntity
  8
C4
100
AcDbLine
 10
876.093402047409
 20
-123.4634034158351
 30
0.0
 11
844.3776732948709
 21
-123.4634034158351
 31
0.0
  0
LINE
  5
4638
330
17
100
AcDbEntity
  8
C4
100
AcDbLine
 10
576.0934020474089
 20
176.5365965841649
 30
0.0
 11
873.0934020474089
 21
176.5365965841649
 31
0.0
  0
LINE
  5
463D
330
17
100
AcDbEntity
  8
C4
100
AcDbLine
 10
641.1974784482654
 20
128.0010626782321
 30
0.0
 11
827.5578681414764
 21
-58.35932701497859
 31
0.0
  0
LINE
  5
463E
330
17
100
AcDbEntity
  8
C4
100
AcDbLine
 10
581.9512664236778
 20
130.6787322078958
 30
0.0
 11
830.23553767114
 21
-117.6055390395661
 31
0.0
  0
LINE
  5
463F
330
17
100
AcDbEntity
  8
C4
100
AcDbLine
 10
836.093402047409
 20
-54.82379310904582
 30
0.0
 11
836.093402047409
 21
121.5365965841648
 31
0.0
  0
ARC
  5
4647
330
17
100
AcDbEntity
  8
C4
100
AcDbCircle
 10
844.3776732948709
 20
-103.4634034158351
 30
0.0
 40
20.0
100
AcDbArc
 50
225.0
 51
270.0
  0
ARC
  5
4648
330
17
100
AcDbEntity
  8
C4
100
AcDbCircle
 10
831.0934020474089
 20
-54.82379310904582
 30
0.0
 40
5.0
100
AcDbArc
 50
225.0
 51
0.0
  0
LINE
  5
464A
330
17
100
AcDbEntity
  8
C4
100
AcDbLine
 10
587.3434020474089
 20
233.286596584165
 30
0.0
 11
614.8434020474089
 21
233.286596584165
 31
0.0
  0
LINE
  5
464B
330
17
100
AcDbEntity
  8
C4
100
AcDbLine
 10
587.3434020474089
 20
222.786596584165
 30
0.0
 11
614.8434020474089
 21
222.786596584165
 31
0.0
  0
ARC
  5
464F
330
17
100
AcDbEntity
  8
C4
100
AcDbCircle
 10
582.093402047409
 20
215.5365965841649
 30
0.0
 40
6.0
100
AcDbArc
 50
180.0
 51
270.0
  0
LINE
  5
4651
330
17
100
AcDbEntity
  8
C4
100
AcDbLine
 10
576.0934020474089
 20
176.5365965841649
 30
0.0
 11
576.0934020474089
 21
144.8208678316267
 31
0.0
  0
ARC
  5
4656
330
17
100
AcDbEntity
  8
C4
100
AcDbCircle
 10
596.0934020474089
 20
144.8208678316267
 30
0.0
 40
20.0
100
AcDbArc
 50
180.0
 51
225.0
  0
LINE
  5
465D
330
17
100
AcDbEntity
  8
C4
100
AcDbLine
 10
576.0934020474089
 20
249.5365965841649
 30
0.0
 11
576.0934020474089
 21
215.5365965841649
 31
0.0
  0
ARC
  5
465E
330
17
100
AcDbEntity
  8
C4
100
AcDbCircle
 10
587.3434020474089
 20
228.0365965841649
 30
0.0
 40
5.25
100
AcDbArc
 50
90.0
 51
270.0
  0
LINE
  5
465F
330
17
100
AcDbEntity
  8
C4
100
AcDbLine
 10
644.7330123541981
 20
136.5365965841647
 30
0.0
 11
821.0934020474089
 21
136.5365965841648
 31
0.0
  0
ARC
  5
4664
330
17
100
AcDbEntity
  8
C4
100
AcDbCircle
 10
644.7330123541981
 20
131.5365965841647
 30
0.0
 40
5.0
100
AcDbArc
 50
90.0
 51
225.0
  0
ARC
  5
4668
330
17
100
AcDbEntity
  8
C4
100
AcDbCircle
 10
821.0934020474089
 20
121.5365965841648
 30
0.0
 40
15.0
100
AcDbArc
 50
0.0
 51
90.0
  0
LINE
  5
466A
330
17
100
AcDbEntity
  8
C4
100
AcDbLine
 10
637.3434020474089
 20
222.786596584165
 30
0.0
 11
664.8434020474089
 21
222.786596584165
 31
0.0
  0
LINE
  5
466B
330
17
100
AcDbEntity
  8
C4
100
AcDbLine
 10
637.3434020474089
 20
233.286596584165
 30
0.0
 11
664.8434020474089
 21
233.286596584165
 31
0.0
  0
CIRCLE
  5
466C
330
17
100
AcDbEntity
  8
C4
100
AcDbCircle
 10
601.0934020474089
 20
215.5365965841649
 30
0.0
 40
1.9
  0
ARC
  5
466D
330
17
100
AcDbEntity
  8
C4
100
AcDbCircle
 10
614.8434020474089
 20
228.0365965841649
 30
0.0
 40
5.25
100
AcDbArc
 50
270.0
 51
90.0
  0
CIRCLE
  5
466E
330
17
100
AcDbEntity
  8
C4
100
AcDbCircle
 10
601.0934020474089
 20
240.5365965841649
 30
0.0
 40
1.9
  0
ARC
  5
466F
330
17
100
AcDbEntity
  8
C4
100
AcDbCircle
 10
637.3434020474089
 20
228.0365965841649
 30
0.0
 40
5.25
100
AcDbArc
 50
90.0
 51
270.0
  0
CIRCLE
  5
4670
330
17
100
AcDbEntity
  8
C4
100
AcDbCircle
 10
651.0934020474089
 20
215.5365965841649
 30
0.0
 40
1.9
  0
CIRCLE
  5
4671
330
17
100
AcDbEntity
  8
C4
100
AcDbCircle
 10
651.0934020474089
 20
240.5365965841649
 30
0.0
 40
1.9
  0
LINE
  5
4672
330
17
100
AcDbEntity
  8
C4
100
AcDbLine
 10
687.3434020474089
 20
222.786596584165
 30
0.0
 11
714.8434020474089
 21
222.786596584165
 31
0.0
  0
LINE
  5
4673
330
17
100
AcDbEntity
  8
C4
100
AcDbLine
 10
687.3434020474089
 20
233.286596584165
 30
0.0
 11
714.8434020474089
 21
233.286596584165
 31
0.0
  0
ARC
  5
4674
330
17
100
AcDbEntity
  8
C4
100
AcDbCircle
 10
664.8434020474089
 20
228.0365965841649
 30
0.0
 40
5.25
100
AcDbArc
 50
270.0
 51
90.0
  0
ARC
  5
4675
330
17
100
AcDbEntity
  8
C4
100
AcDbCircle
 10
687.3434020474089
 20
228.0365965841649
 30
0.0
 40
5.25
100
AcDbArc
 50
90.0
 51
270.0
  0
CIRCLE
  5
4676
330
17
100
AcDbEntity
  8
C4
100
AcDbCircle
 10
701.0934020474089
 20
215.5365965841649
 30
0.0
 40
1.9
  0
ARC
  5
4677
330
17
100
AcDbEntity
  8
C4
100
AcDbCircle
 10
714.8434020474089
 20
228.0365965841649
 30
0.0
 40
5.25
100
AcDbArc
 50
270.0
 51
90.0
  0
CIRCLE
  5
4678
330
17
100
AcDbEntity
  8
C4
100
AcDbCircle
 10
701.0934020474089
 20
240.5365965841649
 30
0.0
 40
1.9
  0
ARC
  5
4679
330
17
100
AcDbEntity
  8
C4
100
AcDbCircle
 10
787.3434020474089
 20
228.0365965841649
 30
0.0
 40
5.25
100
AcDbArc
 50
90.0
 51
270.0
  0
LINE
  5
467A
330
17
100
AcDbEntity
  8
C4
100
AcDbLine
 10
737.3434020474089
 20
233.286596584165
 30
0.0
 11
764.8434020474089
 21
233.286596584165
 31
0.0
  0
LINE
  5
467B
330
17
100
AcDbEntity
  8
C4
100
AcDbLine
 10
737.3434020474089
 20
222.786596584165
 30
0.0
 11
764.8434020474089
 21
222.786596584165
 31
0.0
  0
ARC
  5
467C
330
17
100
AcDbEntity
  8
C4
100
AcDbCircle
 10
737.3434020474089
 20
228.0365965841649
 30
0.0
 40
5.25
100
AcDbArc
 50
90.0
 51
270.0
  0
CIRCLE
  5
467D
330
17
100
AcDbEntity
  8
C4
100
AcDbCircle
 10
751.0934020474089
 20
215.5365965841649
 30
0.0
 40
1.9
  0
CIRCLE
  5
467E
330
17
100
AcDbEntity
  8
C4
100
AcDbCircle
 10
751.0934020474089
 20
240.5365965841649
 30
0.0
 40
1.9
  0
ARC
  5
467F
330
17
100
AcDbEntity
  8
C4
100
AcDbCircle
 10
764.8434020474089
 20
228.0365965841649
 30
0.0
 40
5.25
100
AcDbArc
 50
270.0
 51
90.0
  0
LINE
  5
4680
330
17
100
AcDbEntity
  8
C4
100
AcDbLine
 10
787.3434020474089
 20
222.786596584165
 30
0.0
 11
814.8434020474089
 21
222.786596584165
 31
0.0
  0
LINE
  5
4681
330
17
100
AcDbEntity
  8
C4
100
AcDbLine
 10
787.3434020474089
 20
233.286596584165
 30
0.0
 11
814.8434020474089
 21
233.286596584165
 31
0.0
  0
CIRCLE
  5
4682
330
17
100
AcDbEntity
  8
C4
100
AcDbCircle
 10
801.093402047409
 20
215.5365965841649
 30
0.0
 40
1.9
  0
ARC
  5
4683
330
17
100
AcDbEntity
  8
C4
100
AcDbCircle
 10
814.8434020474089
 20
228.0365965841649
 30
0.0
 40
5.25
100
AcDbArc
 50
270.0
 51
90.0
  0
CIRCLE
  5
4684
330
17
100
AcDbEntity
  8
C4
100
AcDbCircle
 10
801.093402047409
 20
240.5365965841649
 30
0.0
 40
1.9
  0
ARC
  5
4685
330
17
100
AcDbEntity
  8
C4
100
AcDbCircle
 10
837.3434020474089
 20
228.0365965841649
 30
0.0
 40
5.25
100
AcDbArc
 50
90.0
 51
270.0
  0
LINE
  5
4686
330
17
100
AcDbEntity
  8
C4
100
AcDbLine
 10
909.093402047409
 20
-117.4634034158351
 30
0.0
 11
909.093402047409
 21
176.5365965841649
 31
0.0
  0
LINE
  5
4687
330
17
100
AcDbEntity
  8
C6
  6
CENTER
 48
5.0
100
AcDbLine
 10
927.5934020474089
 20
-133.4634034158351
 30
0.0
 11
927.5934020474091
 21
186.5365965841649
 31
0.0
  0
LINE
  5
4688
330
17
100
AcDbEntity
  8
C4
100
AcDbLine
 10
949.0934020474089
 20
-123.4634034158351
 30
0.0
 11
949.0934020474089
 21
173.5365965841649
 31
0.0
  0
LINE
  5
4689
330
17
100
AcDbEntity
  8
C4
100
AcDbLine
 10
873.0934020474089
 20
176.5365965841649
 30
0.0
 11
873.0934020474089
 21
-123.4634034158351
 31
0.0
  0
LINE
  5
468A
330
17
100
AcDbEntity
  8
C4
100
AcDbLine
 10
876.093402047409
 20
173.5365965841649
 30
0.0
 11
876.093402047409
 21
-123.4634034158351
 31
0.0
  0
ARC
  5
4699
330
17
100
AcDbEntity
  8
C4
100
AcDbCircle
 10
927.5934020474089
 20
-62.21340341583516
 30
0.0
 40
5.25
100
AcDbArc
 50
180.0
 51
0.0
  0
LINE
  5
469C
330
17
100
AcDbEntity
  8
C4
100
AcDbLine
 10
949.0934020474089
 20
-123.4634034158351
 30
0.0
 11
915.0934020474089
 21
-123.4634034158351
 31
0.0
  0
ARC
  5
46A1
330
17
100
AcDbEntity
  8
C4
100
AcDbCircle
 10
915.0934020474089
 20
-117.4634034158351
 30
0.0
 40
6.0
100
AcDbArc
 50
180.0
 51
270.0
  0
CIRCLE
  5
46A3
330
17
100
AcDbEntity
  8
C4
100
AcDbCircle
 10
915.0934020474089
 20
-98.46340341583516
 30
0.0
 40
1.9
  0
LINE
  5
46A7
330
17
100
AcDbEntity
  8
C4
100
AcDbLine
 10
922.3434020474089
 20
-112.2134034158351
 30
0.0
 11
922.3434020474089
 21
-84.71340341583516
 31
0.0
  0
LINE
  5
46A8
330
17
100
AcDbEntity
  8
C4
100
AcDbLine
 10
932.8434020474089
 20
-112.2134034158351
 30
0.0
 11
932.8434020474089
 21
-84.71340341583516
 31
0.0
  0
ARC
  5
46AF
330
17
100
AcDbEntity
  8
C4
100
AcDbCircle
 10
927.5934020474089
 20
-112.2134034158351
 30
0.0
 40
5.25
100
AcDbArc
 50
180.0
 51
0.0
  0
CIRCLE
  5
46B4
330
17
100
AcDbEntity
  8
C4
100
AcDbCircle
 10
940.0934020474089
 20
-98.46340341583516
 30
0.0
 40
1.9
  0
ARC
  5
46B5
330
17
100
AcDbEntity
  8
C4
100
AcDbCircle
 10
927.5934020474089
 20
-84.71340341583516
 30
0.0
 40
5.25
100
AcDbArc
 50
0.0
 51
180.0
  0
CIRCLE
  5
46BA
330
17
100
AcDbEntity
  8
C4
100
AcDbCircle
 10
915.0934020474089
 20
-48.46340341583516
 30
0.0
 40
1.9
  0
CIRCLE
  5
46BB
330
17
100
AcDbEntity
  8
C4
100
AcDbCircle
 10
915.0934020474089
 20
1.53659658416484
 30
0.0
 40
1.9
  0
LINE
  5
46BD
330
17
100
AcDbEntity
  8
C4
100
AcDbLine
 10
932.8434020474089
 20
-62.21340341583516
 30
0.0
 11
932.8434020474089
 21
-34.71340341583516
 31
0.0
  0
LINE
  5
46BE
330
17
100
AcDbEntity
  8
C4
100
AcDbLine
 10
922.3434020474089
 20
-62.21340341583516
 30
0.0
 11
922.3434020474089
 21
-34.71340341583516
 31
0.0
  0
CIRCLE
  5
46BF
330
17
100
AcDbEntity
  8
C4
100
AcDbCircle
 10
940.0934020474089
 20
-48.46340341583516
 30
0.0
 40
1.9
  0
ARC
  5
46C0
330
17
100
AcDbEntity
  8
C4
100
AcDbCircle
 10
927.5934020474089
 20
-34.71340341583516
 30
0.0
 40
5.25
100
AcDbArc
 50
0.0
 51
180.0
  0
LINE
  5
46C2
330
17
100
AcDbEntity
  8
C4
100
AcDbLine
 10
932.8434020474089
 20
-12.21340341583516
 30
0.0
 11
932.8434020474089
 21
15.28659658416484
 31
0.0
  0
LINE
  5
46C3
330
17
100
AcDbEntity
  8
C4
100
AcDbLine
 10
922.3434020474089
 20
-12.21340341583516
 30
0.0
 11
922.3434020474089
 21
15.28659658416484
 31
0.0
  0
ARC
  5
46C4
330
17
100
AcDbEntity
  8
C4
100
AcDbCircle
 10
927.5934020474089
 20
-12.21340341583516
 30
0.0
 40
5.25
100
AcDbArc
 50
180.0
 51
0.0
  0
CIRCLE
  5
46C5
330
17
100
AcDbEntity
  8
C4
100
AcDbCircle
 10
940.0934020474089
 20
1.53659658416484
 30
0.0
 40
1.9
  0
ARC
  5
46C6
330
17
100
AcDbEntity
  8
C4
100
AcDbCircle
 10
927.5934020474089
 20
15.28659658416484
 30
0.0
 40
5.25
100
AcDbArc
 50
0.0
 51
180.0
  0
LINE
  5
46C9
330
17
100
AcDbEntity
  8
C4
100
AcDbLine
 10
876.093402047409
 20
246.536596584165
 30
0.0
 11
876.093402047409
 21
209.5365965841649
 31
0.0
  0
LINE
  5
46CA
330
17
100
AcDbEntity
  8
C4
100
AcDbLine
 10
873.0934020474089
 20
249.5365965841649
 30
0.0
 11
873.0934020474089
 21
209.5365965841649
 31
0.0
  0
ARC
  5
46CE
330
17
100
AcDbEntity
  8
C4
100
AcDbCircle
 10
927.5934020474089
 20
115.2865965841648
 30
0.0
 40
5.25
100
AcDbArc
 50
0.0
 51
180.0
  0
CIRCLE
  5
46CF
330
17
100
AcDbEntity
  8
C4
100
AcDbCircle
 10
915.0934020474089
 20
51.53659658416484
 30
0.0
 40
1.9
  0
CIRCLE
  5
46D0
330
17
100
AcDbEntity
  8
C4
100
AcDbCircle
 10
915.0934020474089
 20
101.5365965841648
 30
0.0
 40
1.9
  0
CIRCLE
  5
46D1
330
17
100
AcDbEntity
  8
C4
100
AcDbCircle
 10
940.0934020474089
 20
51.53659658416484
 30
0.0
 40
1.9
  0
LINE
  5
46D2
330
17
100
AcDbEntity
  8
C4
100
AcDbLine
 10
922.3434020474089
 20
37.78659658416484
 30
0.0
 11
922.3434020474089
 21
65.28659658416484
 31
0.0
  0
LINE
  5
46D3
330
17
100
AcDbEntity
  8
C4
100
AcDbLine
 10
932.8434020474089
 20
37.78659658416484
 30
0.0
 11
932.8434020474089
 21
65.28659658416484
 31
0.0
  0
ARC
  5
46D4
330
17
100
AcDbEntity
  8
C4
100
AcDbCircle
 10
927.5934020474089
 20
37.78659658416484
 30
0.0
 40
5.25
100
AcDbArc
 50
180.0
 51
0.0
  0
ARC
  5
46D5
330
17
100
AcDbEntity
  8
C4
100
AcDbCircle
 10
927.5934020474089
 20
65.28659658416484
 30
0.0
 40
5.25
100
AcDbArc
 50
0.0
 51
180.0
  0
LINE
  5
46D6
330
17
100
AcDbEntity
  8
C4
100
AcDbLine
 10
932.8434020474089
 20
87.78659658416485
 30
0.0
 11
932.8434020474089
 21
115.2865965841648
 31
0.0
  0
LINE
  5
46D7
330
17
100
AcDbEntity
  8
C4
100
AcDbLine
 10
922.3434020474089
 20
87.78659658416485
 30
0.0
 11
922.3434020474089
 21
115.2865965841648
 31
0.0
  0
ARC
  5
46D8
330
17
100
AcDbEntity
  8
C4
100
AcDbCircle
 10
927.5934020474089
 20
87.78659658416485
 30
0.0
 40
5.25
100
AcDbArc
 50
180.0
 51
0.0
  0
CIRCLE
  5
46D9
330
17
100
AcDbEntity
  8
C4
100
AcDbCircle
 10
940.0934020474089
 20
101.5365965841648
 30
0.0
 40
1.9
  0
LINE
  5
46DA
330
17
100
AcDbEntity
  8
C4
100
AcDbLine
 10
949.0934020474089
 20
173.5365965841649
 30
0.0
 11
909.093402047409
 21
173.5365965841649
 31
0.0
  0
LINE
  5
46DB
330
17
100
AcDbEntity
  8
C4
100
AcDbLine
 10
946.0934020474089
 20
176.5365965841649
 30
0.0
 11
909.093402047409
 21
176.5365965841649
 31
0.0
  0
CIRCLE
  5
46DF
330
17
100
AcDbEntity
  8
C4
100
AcDbCircle
 10
915.0934020474089
 20
151.5365965841648
 30
0.0
 40
1.9
  0
ARC
  5
46E1
330
17
100
AcDbEntity
  8
C4
100
AcDbCircle
 10
927.5934020474089
 20
165.2865965841648
 30
0.0
 40
5.25
100
AcDbArc
 50
0.0
 51
180.0
  0
LINE
  5
46E2
330
17
100
AcDbEntity
  8
C4
100
AcDbLine
 10
922.3434020474089
 20
137.7865965841648
 30
0.0
 11
922.3434020474089
 21
165.2865965841648
 31
0.0
  0
LINE
  5
46E3
330
17
100
AcDbEntity
  8
C4
100
AcDbLine
 10
932.8434020474089
 20
137.7865965841648
 30
0.0
 11
932.8434020474089
 21
165.2865965841648
 31
0.0
  0
ARC
  5
46E4
330
17
100
AcDbEntity
  8
C4
100
AcDbCircle
 10
927.5934020474089
 20
137.7865965841648
 30
0.0
 40
5.25
100
AcDbArc
 50
180.0
 51
0.0
  0
CIRCLE
  5
46E5
330
17
100
AcDbEntity
  8
C4
100
AcDbCircle
 10
940.0934020474089
 20
151.5365965841648
 30
0.0
 40
1.9
  0
ARC
  5
46E8
330
17
100
AcDbEntity
  8
C4
100
AcDbCircle
 10
864.8434020474089
 20
228.0365965841649
 30
0.0
 40
5.25
100
AcDbArc
 50
270.0
 51
90.0
  0
LINE
  5
46F0
330
17
100
AcDbEntity
  8
C4
100
AcDbLine
 10
1055.093402047409
 20
209.5365965841649
 30
0.0
 11
1499.093402047409
 21
209.5365965841649
 31
0.0
  0
LINE
  5
46F1
330
17
100
AcDbEntity
  8
C6
  6
CENTER
 48
5.0
100
AcDbLine
 10
1039.093402047409
 20
228.0365965841649
 30
0.0
 11
1509.093402047408
 21
228.0365965841649
 31
0.0
  0
LINE
  5
46F2
330
17
100
AcDbEntity
  8
C4
100
AcDbLine
 10
1310.343402047409
 20
233.286596584165
 30
0.0
 11
1337.843402047409
 21
233.286596584165
 31
0.0
  0
LINE
  5
46F3
330
17
100
AcDbEntity
  8
C4
100
AcDbLine
 10
1310.343402047409
 20
222.786596584165
 30
0.0
 11
1337.843402047409
 21
222.786596584165
 31
0.0
  0
CIRCLE
  5
46F4
330
17
100
AcDbEntity
  8
C4
100
AcDbCircle
 10
1324.093402047409
 20
215.536596584165
 30
0.0
 40
1.9
  0
CIRCLE
  5
46F5
330
17
100
AcDbEntity
  8
C4
100
AcDbCircle
 10
1324.093402047409
 20
240.536596584165
 30
0.0
 40
1.9
  0
LINE
  5
46F6
330
17
100
AcDbEntity
  8
C4
100
AcDbLine
 10
1049.093402047409
 20
249.5365965841649
 30
0.0
 11
1496.093402047409
 21
249.5365965841649
 31
0.0
  0
LINE
  5
46F7
330
17
100
AcDbEntity
  8
C4
100
AcDbLine
 10
1049.093402047409
 20
173.5365965841649
 30
0.0
 11
1499.093402047409
 21
173.5365965841649
 31
0.0
  0
LINE
  5
46F8
330
17
100
AcDbEntity
  8
C4
100
AcDbLine
 10
1499.093402047409
 20
-273.463403415835
 30
0.0
 11
1467.377673294871
 21
-273.463403415835
 31
0.0
  0
LINE
  5
46F9
330
17
100
AcDbEntity
  8
C4
100
AcDbLine
 10
1049.093402047408
 20
176.5365965841649
 30
0.0
 11
1496.093402047409
 21
176.5365965841649
 31
0.0
  0
LINE
  5
46FA
330
17
100
AcDbEntity
  8
C4
100
AcDbLine
 10
1114.197478448265
 20
128.0010626782322
 30
0.0
 11
1450.557868141476
 21
-208.3593270149785
 31
0.0
  0
LINE
  5
46FB
330
17
100
AcDbEntity
  8
C4
100
AcDbLine
 10
1054.951266423678
 20
130.6787322078959
 30
0.0
 11
1453.23553767114
 21
-267.6055390395658
 31
0.0
  0
LINE
  5
46FC
330
17
100
AcDbEntity
  8
C4
100
AcDbLine
 10
1459.093402047409
 20
-204.8237931090458
 30
0.0
 11
1459.093402047409
 21
121.5365965841648
 31
0.0
  0
ARC
  5
46FD
330
17
100
AcDbEntity
  8
C4
100
AcDbCircle
 10
1467.377673294871
 20
-253.463403415835
 30
0.0
 40
20.0
100
AcDbArc
 50
224.9999999999998
 51
270.0
  0
LINE
  5
46FF
330
17
100
AcDbEntity
  8
C4
100
AcDbLine
 10
1060.343402047409
 20
233.286596584165
 30
0.0
 11
1087.843402047409
 21
233.286596584165
 31
0.0
  0
LINE
  5
4700
330
17
100
AcDbEntity
  8
C4
100
AcDbLine
 10
1060.343402047409
 20
222.786596584165
 30
0.0
 11
1087.843402047409
 21
222.786596584165
 31
0.0
  0
ARC
  5
4701
330
17
100
AcDbEntity
  8
C4
100
AcDbCircle
 10
1055.093402047409
 20
215.536596584165
 30
0.0
 40
6.0
100
AcDbArc
 50
180.0
 51
270.0
  0
LINE
  5
4702
330
17
100
AcDbEntity
  8
C4
100
AcDbLine
 10
1049.093402047409
 20
176.5365965841649
 30
0.0
 11
1049.093402047409
 21
144.8208678316267
 31
0.0
  0
ARC
  5
4703
330
17
100
AcDbEntity
  8
C4
100
AcDbCircle
 10
1069.093402047409
 20
144.8208678316267
 30
0.0
 40
20.0
100
AcDbArc
 50
180.0
 51
224.9999999999996
  0
LINE
  5
4704
330
17
100
AcDbEntity
  8
C4
100
AcDbLine
 10
1049.093402047409
 20
249.536596584165
 30
0.0
 11
1049.093402047409
 21
215.536596584165
 31
0.0
  0
ARC
  5
4705
330
17
100
AcDbEntity
  8
C4
100
AcDbCircle
 10
1060.343402047409
 20
228.036596584165
 30
0.0
 40
5.25
100
AcDbArc
 50
90.0
 51
270.0
  0
LINE
  5
4706
330
17
100
AcDbEntity
  8
C4
100
AcDbLine
 10
1117.733012354198
 20
136.5365965841646
 30
0.0
 11
1444.093402047409
 21
136.5365965841648
 31
0.0
  0
ARC
  5
4707
330
17
100
AcDbEntity
  8
C4
100
AcDbCircle
 10
1117.733012354198
 20
131.5365965841648
 30
0.0
 40
5.0
100
AcDbArc
 50
90.0
 51
224.9999999999996
  0
ARC
  5
4708
330
17
100
AcDbEntity
  8
C4
100
AcDbCircle
 10
1444.093402047409
 20
121.5365965841648
 30
0.0
 40
15.0
100
AcDbArc
 50
0.0
 51
90.0
  0
LINE
  5
4709
330
17
100
AcDbEntity
  8
C4
100
AcDbLine
 10
1110.343402047409
 20
222.786596584165
 30
0.0
 11
1137.843402047409
 21
222.786596584165
 31
0.0
  0
LINE
  5
470A
330
17
100
AcDbEntity
  8
C4
100
AcDbLine
 10
1110.343402047409
 20
233.286596584165
 30
0.0
 11
1137.843402047409
 21
233.286596584165
 31
0.0
  0
CIRCLE
  5
470B
330
17
100
AcDbEntity
  8
C4
100
AcDbCircle
 10
1074.093402047409
 20
215.536596584165
 30
0.0
 40
1.9
  0
ARC
  5
470C
330
17
100
AcDbEntity
  8
C4
100
AcDbCircle
 10
1087.843402047409
 20
228.036596584165
 30
0.0
 40
5.25
100
AcDbArc
 50
270.0
 51
90.0
  0
CIRCLE
  5
470D
330
17
100
AcDbEntity
  8
C4
100
AcDbCircle
 10
1074.093402047409
 20
240.536596584165
 30
0.0
 40
1.9
  0
ARC
  5
470E
330
17
100
AcDbEntity
  8
C4
100
AcDbCircle
 10
1110.343402047409
 20
228.036596584165
 30
0.0
 40
5.25
100
AcDbArc
 50
90.0
 51
270.0
  0
CIRCLE
  5
470F
330
17
100
AcDbEntity
  8
C4
100
AcDbCircle
 10
1124.093402047409
 20
215.536596584165
 30
0.0
 40
1.9
  0
CIRCLE
  5
4710
330
17
100
AcDbEntity
  8
C4
100
AcDbCircle
 10
1124.093402047409
 20
240.536596584165
 30
0.0
 40
1.9
  0
LINE
  5
4711
330
17
100
AcDbEntity
  8
C4
100
AcDbLine
 10
1160.343402047409
 20
222.786596584165
 30
0.0
 11
1187.843402047409
 21
222.786596584165
 31
0.0
  0
LINE
  5
4712
330
17
100
AcDbEntity
  8
C4
100
AcDbLine
 10
1160.343402047409
 20
233.286596584165
 30
0.0
 11
1187.843402047409
 21
233.286596584165
 31
0.0
  0
ARC
  5
4713
330
17
100
AcDbEntity
  8
C4
100
AcDbCircle
 10
1137.843402047409
 20
228.036596584165
 30
0.0
 40
5.25
100
AcDbArc
 50
270.0
 51
90.0
  0
ARC
  5
4714
330
17
100
AcDbEntity
  8
C4
100
AcDbCircle
 10
1160.343402047409
 20
228.036596584165
 30
0.0
 40
5.25
100
AcDbArc
 50
90.0
 51
270.0
  0
CIRCLE
  5
4715
330
17
100
AcDbEntity
  8
C4
100
AcDbCircle
 10
1174.093402047409
 20
215.536596584165
 30
0.0
 40
1.9
  0
ARC
  5
4716
330
17
100
AcDbEntity
  8
C4
100
AcDbCircle
 10
1187.843402047409
 20
228.036596584165
 30
0.0
 40
5.25
100
AcDbArc
 50
270.0
 51
90.0
  0
CIRCLE
  5
4717
330
17
100
AcDbEntity
  8
C4
100
AcDbCircle
 10
1174.093402047409
 20
240.536596584165
 30
0.0
 40
1.9
  0
ARC
  5
4718
330
17
100
AcDbEntity
  8
C4
100
AcDbCircle
 10
1260.343402047409
 20
228.036596584165
 30
0.0
 40
5.25
100
AcDbArc
 50
90.0
 51
270.0
  0
LINE
  5
4719
330
17
100
AcDbEntity
  8
C4
100
AcDbLine
 10
1210.343402047409
 20
233.286596584165
 30
0.0
 11
1237.843402047409
 21
233.286596584165
 31
0.0
  0
LINE
  5
471A
330
17
100
AcDbEntity
  8
C4
100
AcDbLine
 10
1210.343402047409
 20
222.786596584165
 30
0.0
 11
1237.843402047409
 21
222.786596584165
 31
0.0
  0
ARC
  5
471B
330
17
100
AcDbEntity
  8
C4
100
AcDbCircle
 10
1210.343402047409
 20
228.036596584165
 30
0.0
 40
5.25
100
AcDbArc
 50
90.0
 51
270.0
  0
CIRCLE
  5
471C
330
17
100
AcDbEntity
  8
C4
100
AcDbCircle
 10
1224.093402047409
 20
215.536596584165
 30
0.0
 40
1.9
  0
CIRCLE
  5
471D
330
17
100
AcDbEntity
  8
C4
100
AcDbCircle
 10
1224.093402047409
 20
240.536596584165
 30
0.0
 40
1.9
  0
ARC
  5
471E
330
17
100
AcDbEntity
  8
C4
100
AcDbCircle
 10
1237.843402047409
 20
228.036596584165
 30
0.0
 40
5.25
100
AcDbArc
 50
270.0
 51
90.0
  0
LINE
  5
471F
330
17
100
AcDbEntity
  8
C4
100
AcDbLine
 10
1260.343402047409
 20
222.786596584165
 30
0.0
 11
1287.843402047409
 21
222.786596584165
 31
0.0
  0
LINE
  5
4720
330
17
100
AcDbEntity
  8
C4
100
AcDbLine
 10
1260.343402047409
 20
233.286596584165
 30
0.0
 11
1287.843402047409
 21
233.286596584165
 31
0.0
  0
CIRCLE
  5
4721
330
17
100
AcDbEntity
  8
C4
100
AcDbCircle
 10
1274.093402047409
 20
215.536596584165
 30
0.0
 40
1.9
  0
ARC
  5
4722
330
17
100
AcDbEntity
  8
C4
100
AcDbCircle
 10
1287.843402047409
 20
228.036596584165
 30
0.0
 40
5.25
100
AcDbArc
 50
270.0
 51
90.0
  0
CIRCLE
  5
4723
330
17
100
AcDbEntity
  8
C4
100
AcDbCircle
 10
1274.093402047409
 20
240.536596584165
 30
0.0
 40
1.9
  0
ARC
  5
4724
330
17
100
AcDbEntity
  8
C4
100
AcDbCircle
 10
1310.343402047409
 20
228.036596584165
 30
0.0
 40
5.25
100
AcDbArc
 50
90.0
 51
270.0
  0
LINE
  5
4725
330
17
100
AcDbEntity
  8
C4
100
AcDbLine
 10
1532.093402047409
 20
-267.463403415835
 30
0.0
 11
1532.093402047409
 21
176.5365965841649
 31
0.0
  0
LINE
  5
4726
330
17
100
AcDbEntity
  8
C6
  6
CENTER
 48
5.0
100
AcDbLine
 10
1550.593402047409
 20
-279.4810322480171
 30
0.0
 11
1550.593402047409
 21
186.5365965841649
 31
0.0
  0
LINE
  5
4727
330
17
100
AcDbEntity
  8
C4
100
AcDbLine
 10
1572.093402047409
 20
-273.463403415835
 30
0.0
 11
1572.093402047409
 21
173.5365965841649
 31
0.0
  0
LINE
  5
4728
330
17
100
AcDbEntity
  8
C4
100
AcDbLine
 10
1496.093402047409
 20
176.5365965841649
 30
0.0
 11
1496.093402047409
 21
-273.4634034158351
 31
0.0
  0
LINE
  5
4729
330
17
100
AcDbEntity
  8
C4
100
AcDbLine
 10
1499.093402047409
 20
173.5365965841649
 30
0.0
 11
1499.093402047409
 21
-273.4634034158351
 31
0.0
  0
ARC
  5
472A
330
17
100
AcDbEntity
  8
C4
100
AcDbCircle
 10
1550.593402047409
 20
-62.21340341583516
 30
0.0
 40
5.25
100
AcDbArc
 50
180.0
 51
0.0
  0
LINE
  5
472B
330
17
100
AcDbEntity
  8
C4
100
AcDbLine
 10
1572.093402047409
 20
-273.463403415835
 30
0.0
 11
1538.093402047409
 21
-273.463403415835
 31
0.0
  0
ARC
  5
472C
330
17
100
AcDbEntity
  8
C4
100
AcDbCircle
 10
1538.093402047409
 20
-267.463403415835
 30
0.0
 40
6.0
100
AcDbArc
 50
180.0
 51
270.0
  0
CIRCLE
  5
472D
330
17
100
AcDbEntity
  8
C4
100
AcDbCircle
 10
1538.093402047409
 20
-98.46340341583516
 30
0.0
 40
1.9
  0
LINE
  5
472E
330
17
100
AcDbEntity
  8
C4
100
AcDbLine
 10
1545.343402047409
 20
-112.2134034158351
 30
0.0
 11
1545.343402047409
 21
-84.71340341583516
 31
0.0
  0
LINE
  5
472F
330
17
100
AcDbEntity
  8
C4
100
AcDbLine
 10
1555.843402047409
 20
-112.2134034158351
 30
0.0
 11
1555.843402047409
 21
-84.71340341583516
 31
0.0
  0
ARC
  5
4730
330
17
100
AcDbEntity
  8
C4
100
AcDbCircle
 10
1550.593402047409
 20
-112.2134034158351
 30
0.0
 40
5.25
100
AcDbArc
 50
180.0
 51
0.0
  0
CIRCLE
  5
4731
330
17
100
AcDbEntity
  8
C4
100
AcDbCircle
 10
1563.093402047409
 20
-98.46340341583516
 30
0.0
 40
1.9
  0
ARC
  5
4732
330
17
100
AcDbEntity
  8
C4
100
AcDbCircle
 10
1550.593402047409
 20
-84.71340341583516
 30
0.0
 40
5.25
100
AcDbArc
 50
0.0
 51
180.0
  0
CIRCLE
  5
4733
330
17
100
AcDbEntity
  8
C4
100
AcDbCircle
 10
1538.093402047409
 20
-48.46340341583516
 30
0.0
 40
1.9
  0
CIRCLE
  5
4734
330
17
100
AcDbEntity
  8
C4
100
AcDbCircle
 10
1538.093402047409
 20
1.53659658416484
 30
0.0
 40
1.9
  0
LINE
  5
4735
330
17
100
AcDbEntity
  8
C4
100
AcDbLine
 10
1555.843402047409
 20
-62.21340341583516
 30
0.0
 11
1555.843402047409
 21
-34.71340341583516
 31
0.0
  0
LINE
  5
4736
330
17
100
AcDbEntity
  8
C4
100
AcDbLine
 10
1545.343402047409
 20
-62.21340341583516
 30
0.0
 11
1545.343402047409
 21
-34.71340341583516
 31
0.0
  0
CIRCLE
  5
4737
330
17
100
AcDbEntity
  8
C4
100
AcDbCircle
 10
1563.093402047409
 20
-48.46340341583516
 30
0.0
 40
1.9
  0
ARC
  5
4738
330
17
100
AcDbEntity
  8
C4
100
AcDbCircle
 10
1550.593402047409
 20
-34.71340341583516
 30
0.0
 40
5.25
100
AcDbArc
 50
0.0
 51
180.0
  0
LINE
  5
4739
330
17
100
AcDbEntity
  8
C4
100
AcDbLine
 10
1555.843402047409
 20
-12.21340341583516
 30
0.0
 11
1555.843402047409
 21
15.28659658416484
 31
0.0
  0
LINE
  5
473A
330
17
100
AcDbEntity
  8
C4
100
AcDbLine
 10
1545.343402047409
 20
-12.21340341583516
 30
0.0
 11
1545.343402047409
 21
15.28659658416484
 31
0.0
  0
ARC
  5
473B
330
17
100
AcDbEntity
  8
C4
100
AcDbCircle
 10
1550.593402047409
 20
-12.21340341583516
 30
0.0
 40
5.25
100
AcDbArc
 50
180.0
 51
0.0
  0
CIRCLE
  5
473C
330
17
100
AcDbEntity
  8
C4
100
AcDbCircle
 10
1563.093402047409
 20
1.53659658416484
 30
0.0
 40
1.9
  0
ARC
  5
473D
330
17
100
AcDbEntity
  8
C4
100
AcDbCircle
 10
1550.593402047409
 20
15.28659658416484
 30
0.0
 40
5.25
100
AcDbArc
 50
0.0
 51
180.0
  0
LINE
  5
473E
330
17
100
AcDbEntity
  8
C4
100
AcDbLine
 10
1499.093402047409
 20
246.536596584165
 30
0.0
 11
1499.093402047409
 21
209.5365965841649
 31
0.0
  0
LINE
  5
473F
330
17
100
AcDbEntity
  8
C4
100
AcDbLine
 10
1496.093402047409
 20
249.5365965841649
 30
0.0
 11
1496.093402047409
 21
209.5365965841649
 31
0.0
  0
ARC
  5
4740
330
17
100
AcDbEntity
  8
C4
100
AcDbCircle
 10
1550.593402047409
 20
115.2865965841648
 30
0.0
 40
5.25
100
AcDbArc
 50
0.0
 51
180.0
  0
CIRCLE
  5
4741
330
17
100
AcDbEntity
  8
C4
100
AcDbCircle
 10
1538.093402047409
 20
51.53659658416484
 30
0.0
 40
1.9
  0
CIRCLE
  5
4742
330
17
100
AcDbEntity
  8
C4
100
AcDbCircle
 10
1538.093402047409
 20
101.5365965841648
 30
0.0
 40
1.9
  0
CIRCLE
  5
4743
330
17
100
AcDbEntity
  8
C4
100
AcDbCircle
 10
1563.093402047409
 20
51.53659658416484
 30
0.0
 40
1.9
  0
LINE
  5
4744
330
17
100
AcDbEntity
  8
C4
100
AcDbLine
 10
1545.343402047409
 20
37.78659658416484
 30
0.0
 11
1545.343402047409
 21
65.28659658416484
 31
0.0
  0
LINE
  5
4745
330
17
100
AcDbEntity
  8
C4
100
AcDbLine
 10
1555.843402047409
 20
37.78659658416484
 30
0.0
 11
1555.843402047409
 21
65.28659658416484
 31
0.0
  0
ARC
  5
4746
330
17
100
AcDbEntity
  8
C4
100
AcDbCircle
 10
1550.593402047409
 20
37.78659658416484
 30
0.0
 40
5.25
100
AcDbArc
 50
180.0
 51
0.0
  0
ARC
  5
4747
330
17
100
AcDbEntity
  8
C4
100
AcDbCircle
 10
1550.593402047409
 20
65.28659658416484
 30
0.0
 40
5.25
100
AcDbArc
 50
0.0
 51
180.0
  0
LINE
  5
4748
330
17
100
AcDbEntity
  8
C4
100
AcDbLine
 10
1555.843402047409
 20
87.78659658416485
 30
0.0
 11
1555.843402047409
 21
115.2865965841648
 31
0.0
  0
LINE
  5
4749
330
17
100
AcDbEntity
  8
C4
100
AcDbLine
 10
1545.343402047409
 20
87.78659658416485
 30
0.0
 11
1545.343402047409
 21
115.2865965841648
 31
0.0
  0
ARC
  5
474A
330
17
100
AcDbEntity
  8
C4
100
AcDbCircle
 10
1550.593402047409
 20
87.78659658416485
 30
0.0
 40
5.25
100
AcDbArc
 50
180.0
 51
0.0
  0
CIRCLE
  5
474B
330
17
100
AcDbEntity
  8
C4
100
AcDbCircle
 10
1563.093402047409
 20
101.5365965841648
 30
0.0
 40
1.9
  0
LINE
  5
474C
330
17
100
AcDbEntity
  8
C4
100
AcDbLine
 10
1572.093402047409
 20
173.5365965841649
 30
0.0
 11
1532.093402047409
 21
173.5365965841649
 31
0.0
  0
LINE
  5
474D
330
17
100
AcDbEntity
  8
C4
100
AcDbLine
 10
1569.093402047409
 20
176.5365965841649
 30
0.0
 11
1532.093402047409
 21
176.5365965841649
 31
0.0
  0
CIRCLE
  5
474E
330
17
100
AcDbEntity
  8
C4
100
AcDbCircle
 10
1538.093402047409
 20
151.5365965841648
 30
0.0
 40
1.9
  0
ARC
  5
474F
330
17
100
AcDbEntity
  8
C4
100
AcDbCircle
 10
1550.593402047409
 20
165.2865965841648
 30
0.0
 40
5.25
100
AcDbArc
 50
0.0
 51
180.0
  0
LINE
  5
4750
330
17
100
AcDbEntity
  8
C4
100
AcDbLine
 10
1545.343402047409
 20
137.7865965841648
 30
0.0
 11
1545.343402047409
 21
165.2865965841648
 31
0.0
  0
LINE
  5
4751
330
17
100
AcDbEntity
  8
C4
100
AcDbLine
 10
1555.843402047409
 20
137.7865965841648
 30
0.0
 11
1555.843402047409
 21
165.2865965841648
 31
0.0
  0
ARC
  5
4752
330
17
100
AcDbEntity
  8
C4
100
AcDbCircle
 10
1550.593402047409
 20
137.7865965841648
 30
0.0
 40
5.25
100
AcDbArc
 50
180.0
 51
0.0
  0
CIRCLE
  5
4753
330
17
100
AcDbEntity
  8
C4
100
AcDbCircle
 10
1563.093402047409
 20
151.5365965841648
 30
0.0
 40
1.9
  0
ARC
  5
4754
330
17
100
AcDbEntity
  8
C4
100
AcDbCircle
 10
1337.843402047409
 20
228.036596584165
 30
0.0
 40
5.25
100
AcDbArc
 50
270.0
 51
90.0
  0
ARC
  5
4759
330
17
100
AcDbEntity
  8
C4
100
AcDbCircle
 10
1550.593402047409
 20
-212.213403415835
 30
0.0
 40
5.25
100
AcDbArc
 50
180.0
 51
0.0
  0
CIRCLE
  5
475A
330
17
100
AcDbEntity
  8
C4
100
AcDbCircle
 10
1538.093402047409
 20
-248.463403415835
 30
0.0
 40
1.9
  0
LINE
  5
475B
330
17
100
AcDbEntity
  8
C4
100
AcDbLine
 10
1545.343402047409
 20
-262.213403415835
 30
0.0
 11
1545.343402047409
 21
-234.713403415835
 31
0.0
  0
LINE
  5
475C
330
17
100
AcDbEntity
  8
C4
100
AcDbLine
 10
1555.843402047409
 20
-262.213403415835
 30
0.0
 11
1555.843402047409
 21
-234.713403415835
 31
0.0
  0
ARC
  5
475D
330
17
100
AcDbEntity
  8
C4
100
AcDbCircle
 10
1550.593402047409
 20
-262.213403415835
 30
0.0
 40
5.25
100
AcDbArc
 50
180.0
 51
0.0
  0
CIRCLE
  5
475E
330
17
100
AcDbEntity
  8
C4
100
AcDbCircle
 10
1563.093402047409
 20
-248.463403415835
 30
0.0
 40
1.9
  0
ARC
  5
475F
330
17
100
AcDbEntity
  8
C4
100
AcDbCircle
 10
1550.593402047409
 20
-234.713403415835
 30
0.0
 40
5.25
100
AcDbArc
 50
0.0
 51
180.0
  0
CIRCLE
  5
4760
330
17
100
AcDbEntity
  8
C4
100
AcDbCircle
 10
1538.093402047409
 20
-198.463403415835
 30
0.0
 40
1.9
  0
CIRCLE
  5
4761
330
17
100
AcDbEntity
  8
C4
100
AcDbCircle
 10
1538.093402047409
 20
-148.463403415835
 30
0.0
 40
1.9
  0
LINE
  5
4762
330
17
100
AcDbEntity
  8
C4
100
AcDbLine
 10
1555.843402047409
 20
-212.213403415835
 30
0.0
 11
1555.843402047409
 21
-184.713403415835
 31
0.0
  0
LINE
  5
4763
330
17
100
AcDbEntity
  8
C4
100
AcDbLine
 10
1545.343402047409
 20
-212.213403415835
 30
0.0
 11
1545.343402047409
 21
-184.713403415835
 31
0.0
  0
CIRCLE
  5
4764
330
17
100
AcDbEntity
  8
C4
100
AcDbCircle
 10
1563.093402047409
 20
-198.463403415835
 30
0.0
 40
1.9
  0
ARC
  5
4765
330
17
100
AcDbEntity
  8
C4
100
AcDbCircle
 10
1550.593402047409
 20
-184.713403415835
 30
0.0
 40
5.25
100
AcDbArc
 50
0.0
 51
180.0
  0
LINE
  5
4766
330
17
100
AcDbEntity
  8
C4
100
AcDbLine
 10
1555.843402047409
 20
-162.213403415835
 30
0.0
 11
1555.843402047409
 21
-134.713403415835
 31
0.0
  0
LINE
  5
4767
330
17
100
AcDbEntity
  8
C4
100
AcDbLine
 10
1545.343402047409
 20
-162.213403415835
 30
0.0
 11
1545.343402047409
 21
-134.713403415835
 31
0.0
  0
ARC
  5
4768
330
17
100
AcDbEntity
  8
C4
100
AcDbCircle
 10
1550.593402047409
 20
-162.213403415835
 30
0.0
 40
5.25
100
AcDbArc
 50
180.0
 51
0.0
  0
CIRCLE
  5
4769
330
17
100
AcDbEntity
  8
C4
100
AcDbCircle
 10
1563.093402047409
 20
-148.463403415835
 30
0.0
 40
1.9
  0
ARC
  5
476A
330
17
100
AcDbEntity
  8
C4
100
AcDbCircle
 10
1550.593402047409
 20
-134.713403415835
 30
0.0
 40
5.25
100
AcDbArc
 50
0.0
 51
180.0
  0
ARC
  5
476B
330
17
100
AcDbEntity
  8
C4
100
AcDbCircle
 10
1550.593402047409
 20
-34.71340341583499
 30
0.0
 40
5.25
100
AcDbArc
 50
0.0
 51
180.0
  0
CIRCLE
  5
476C
330
17
100
AcDbEntity
  8
C4
100
AcDbCircle
 10
1538.093402047409
 20
-98.46340341583498
 30
0.0
 40
1.9
  0
CIRCLE
  5
476D
330
17
100
AcDbEntity
  8
C4
100
AcDbCircle
 10
1538.093402047409
 20
-48.46340341583498
 30
0.0
 40
1.9
  0
CIRCLE
  5
476E
330
17
100
AcDbEntity
  8
C4
100
AcDbCircle
 10
1563.093402047409
 20
-98.46340341583498
 30
0.0
 40
1.9
  0
LINE
  5
476F
330
17
100
AcDbEntity
  8
C4
100
AcDbLine
 10
1545.343402047409
 20
-112.213403415835
 30
0.0
 11
1545.343402047409
 21
-84.71340341583498
 31
0.0
  0
LINE
  5
4770
330
17
100
AcDbEntity
  8
C4
100
AcDbLine
 10
1555.843402047409
 20
-112.213403415835
 30
0.0
 11
1555.843402047409
 21
-84.71340341583498
 31
0.0
  0
ARC
  5
4771
330
17
100
AcDbEntity
  8
C4
100
AcDbCircle
 10
1550.593402047409
 20
-112.213403415835
 30
0.0
 40
5.25
100
AcDbArc
 50
180.0
 51
0.0
  0
ARC
  5
4772
330
17
100
AcDbEntity
  8
C4
100
AcDbCircle
 10
1550.593402047409
 20
-84.71340341583498
 30
0.0
 40
5.25
100
AcDbArc
 50
0.0
 51
180.0
  0
LINE
  5
4773
330
17
100
AcDbEntity
  8
C4
100
AcDbLine
 10
1555.843402047409
 20
-62.21340341583498
 30
0.0
 11
1555.843402047409
 21
-34.71340341583499
 31
0.0
  0
LINE
  5
4774
330
17
100
AcDbEntity
  8
C4
100
AcDbLine
 10
1545.343402047409
 20
-62.21340341583498
 30
0.0
 11
1545.343402047409
 21
-34.71340341583499
 31
0.0
  0
ARC
  5
4775
330
17
100
AcDbEntity
  8
C4
100
AcDbCircle
 10
1550.593402047409
 20
-62.21340341583498
 30
0.0
 40
5.25
100
AcDbArc
 50
180.0
 51
0.0
  0
CIRCLE
  5
4776
330
17
100
AcDbEntity
  8
C4
100
AcDbCircle
 10
1563.093402047409
 20
-48.46340341583498
 30
0.0
 40
1.9
  0
CIRCLE
  5
4777
330
17
100
AcDbEntity
  8
C4
100
AcDbCircle
 10
1538.093402047409
 20
1.53659658416501
 30
0.0
 40
1.9
  0
ARC
  5
4778
330
17
100
AcDbEntity
  8
C4
100
AcDbCircle
 10
1550.593402047409
 20
15.28659658416501
 30
0.0
 40
5.25
100
AcDbArc
 50
0.0
 51
180.0
  0
LINE
  5
4779
330
17
100
AcDbEntity
  8
C4
100
AcDbLine
 10
1545.343402047409
 20
-12.21340341583499
 30
0.0
 11
1545.343402047409
 21
15.28659658416501
 31
0.0
  0
LINE
  5
477A
330
17
100
AcDbEntity
  8
C4
100
AcDbLine
 10
1555.843402047409
 20
-12.21340341583499
 30
0.0
 11
1555.843402047409
 21
15.28659658416501
 31
0.0
  0
ARC
  5
477B
330
17
100
AcDbEntity
  8
C4
100
AcDbCircle
 10
1550.593402047409
 20
-12.21340341583499
 30
0.0
 40
5.25
100
AcDbArc
 50
180.0
 51
0.0
  0
CIRCLE
  5
477C
330
17
100
AcDbEntity
  8
C4
100
AcDbCircle
 10
1563.093402047409
 20
1.53659658416501
 30
0.0
 40
1.9
  0
LINE
  5
477D
330
17
100
AcDbEntity
  8
C4
100
AcDbLine
 10
1460.343402047409
 20
233.286596584165
 30
0.0
 11
1487.843402047409
 21
233.286596584165
 31
0.0
  0
LINE
  5
477E
330
17
100
AcDbEntity
  8
C4
100
AcDbLine
 10
1460.343402047409
 20
222.786596584165
 30
0.0
 11
1487.843402047409
 21
222.786596584165
 31
0.0
  0
CIRCLE
  5
477F
330
17
100
AcDbEntity
  8
C4
100
AcDbCircle
 10
1474.093402047409
 20
215.536596584165
 30
0.0
 40
1.9
  0
CIRCLE
  5
4780
330
17
100
AcDbEntity
  8
C4
100
AcDbCircle
 10
1474.093402047409
 20
240.536596584165
 30
0.0
 40
1.9
  0
ARC
  5
4781
330
17
100
AcDbEntity
  8
C4
100
AcDbCircle
 10
1410.343402047409
 20
228.036596584165
 30
0.0
 40
5.25
100
AcDbArc
 50
90.0
 51
270.0
  0
LINE
  5
4782
330
17
100
AcDbEntity
  8
C4
100
AcDbLine
 10
1360.343402047409
 20
233.286596584165
 30
0.0
 11
1387.843402047409
 21
233.286596584165
 31
0.0
  0
LINE
  5
4783
330
17
100
AcDbEntity
  8
C4
100
AcDbLine
 10
1360.343402047409
 20
222.786596584165
 30
0.0
 11
1387.843402047409
 21
222.786596584165
 31
0.0
  0
ARC
  5
4784
330
17
100
AcDbEntity
  8
C4
100
AcDbCircle
 10
1360.343402047409
 20
228.036596584165
 30
0.0
 40
5.25
100
AcDbArc
 50
90.0
 51
270.0
  0
CIRCLE
  5
4785
330
17
100
AcDbEntity
  8
C4
100
AcDbCircle
 10
1374.093402047409
 20
215.536596584165
 30
0.0
 40
1.9
  0
CIRCLE
  5
4786
330
17
100
AcDbEntity
  8
C4
100
AcDbCircle
 10
1374.093402047409
 20
240.536596584165
 30
0.0
 40
1.9
  0
ARC
  5
4787
330
17
100
AcDbEntity
  8
C4
100
AcDbCircle
 10
1387.843402047409
 20
228.036596584165
 30
0.0
 40
5.25
100
AcDbArc
 50
270.0
 51
90.0
  0
LINE
  5
4788
330
17
100
AcDbEntity
  8
C4
100
AcDbLine
 10
1410.343402047409
 20
222.786596584165
 30
0.0
 11
1437.843402047409
 21
222.786596584165
 31
0.0
  0
LINE
  5
4789
330
17
100
AcDbEntity
  8
C4
100
AcDbLine
 10
1410.343402047409
 20
233.286596584165
 30
0.0
 11
1437.843402047409
 21
233.286596584165
 31
0.0
  0
CIRCLE
  5
478A
330
17
100
AcDbEntity
  8
C4
100
AcDbCircle
 10
1424.093402047409
 20
215.536596584165
 30
0.0
 40
1.9
  0
ARC
  5
478B
330
17
100
AcDbEntity
  8
C4
100
AcDbCircle
 10
1437.843402047409
 20
228.036596584165
 30
0.0
 40
5.25
100
AcDbArc
 50
270.0
 51
90.0
  0
CIRCLE
  5
478C
330
17
100
AcDbEntity
  8
C4
100
AcDbCircle
 10
1424.093402047409
 20
240.536596584165
 30
0.0
 40
1.9
  0
ARC
  5
478D
330
17
100
AcDbEntity
  8
C4
100
AcDbCircle
 10
1460.343402047409
 20
228.036596584165
 30
0.0
 40
5.25
100
AcDbArc
 50
90.0
 51
270.0
  0
ARC
  5
478E
330
17
100
AcDbEntity
  8
C4
100
AcDbCircle
 10
1487.843402047409
 20
228.036596584165
 30
0.0
 40
5.25
100
AcDbArc
 50
270.0
 51
90.0
  0
ARC
  5
478F
330
17
100
AcDbEntity
  8
C4
100
AcDbCircle
 10
1454.093402047409
 20
-204.8237931090458
 30
0.0
 40
5.0
100
AcDbArc
 50
224.9999999999998
 51
0.0000000000000382
  0
ARC
  5
4790
330
17
100
AcDbEntity
  8
C4
100
AcDbCircle
 10
873.0934020474089
 20
246.536596584165
 30
0.0
 40
3.0
100
AcDbArc
 50
0.0
 51
90.0
  0
ARC
  5
4791
330
17
100
AcDbEntity
  8
C4
100
AcDbCircle
 10
946.0934020474089
 20
173.5365965841649
 30
0.0
 40
3.0
100
AcDbArc
 50
0.0
 51
90.0
  0
ARC
  5
479C
330
17
100
AcDbEntity
  8
C4
100
AcDbCircle
 10
1496.093402047409
 20
246.536596584165
 30
0.0
 40
3.0
100
AcDbArc
 50
0.0
 51
90.0
  0
ARC
  5
479D
330
17
100
AcDbEntity
  8
C4
100
AcDbCircle
 10
1569.093402047409
 20
173.5365965841649
 30
0.0
 40
3.0
100
AcDbArc
 50
0.0
 51
90.0
  0
LINE
  5
479E
330
17
100
AcDbEntity
  8
C6
100
AcDbLine
 10
526.0934020474089
 20
299.536596584165
 30
0.0
 11
999.0934020474089
 21
299.536596584165
 31
0.0
  0
LINE
  5
479F
330
17
100
AcDbEntity
  8
C6
100
AcDbLine
 10
526.0934020474089
 20
299.536596584165
 30
0.0
 11
526.0934020474089
 21
-173.4634034158351
 31
0.0
  0
LINE
  5
47A0
330
17
100
AcDbEntity
  8
C6
100
AcDbLine
 10
999.0934020474089
 20
-173.4634034158351
 30
0.0
 11
999.0934020474089
 21
299.536596584165
 31
0.0
  0
LINE
  5
47A1
330
17
100
AcDbEntity
  8
C6
100
AcDbLine
 10
999.0934020474089
 20
-173.4634034158351
 30
0.0
 11
526.0934020474089
 21
-173.4634034158351
 31
0.0
  0
LINE
  5
47A2
330
17
100
AcDbEntity
  8
C6
100
AcDbLine
 10
999.0934020474089
 20
299.536596584165
 30
0.0
 11
999.0934020474089
 21
-323.4634034158349
 31
0.0
  0
LINE
  5
47A3
330
17
100
AcDbEntity
  8
C6
100
AcDbLine
 10
999.0934020474089
 20
299.536596584165
 30
0.0
 11
1622.093402047409
 21
299.536596584165
 31
0.0
  0
LINE
  5
47A4
330
17
100
AcDbEntity
  8
C6
100
AcDbLine
 10
1622.093402047408
 20
-323.463403415835
 30
0.0
 11
1622.093402047409
 21
299.536596584165
 31
0.0
  0
LINE
  5
47A5
330
17
100
AcDbEntity
  8
C6
100
AcDbLine
 10
1622.093402047408
 20
-323.463403415835
 30
0.0
 11
999.0934020474089
 21
-323.463403415835
 31
0.0
  0
TEXT
  5
47A6
330
17
100
AcDbEntity
  8
C6
100
AcDbText
 10
540.0554772467224
 20
272.5618388228925
 30
0.0
 40
15.0
  1
TB-1Y30
  7
CMP-SET
 11
540.0554772467224
 21
287.5618388228925
 31
0.0
100
AcDbText
 73
     3
  0
TEXT
  5
47A7
330
17
100
AcDbEntity
  8
C6
100
AcDbText
 10
1013.055477246722
 20
272.5618388228925
 30
0.0
 40
15.0
  1
TB-1Y45
  7
CMP-SET
 11
1013.055477246722
 21
287.5618388228925
 31
0.0
100
AcDbText
 73
     3
  0
ENDSEC
  0
SECTION
  2
OBJECTS
  0
DICTIONARY
  5
C
330
0
100
AcDbDictionary
281
     1
  3
ACAD_CIP_PREVIOUS_PRODUCT_INFO
350
45FC
  3
ACAD_COLOR
350
45D9
  3
ACAD_DETAILVIEWSTYLE
350
45F3
  3
ACAD_GROUP
350
D
  3
ACAD_LAYOUT
350
45DA
  3
ACAD_MATERIAL
350
45A7
  3
ACAD_MLEADERSTYLE
350
45EF
  3
ACAD_MLINESTYLE
350
1A
  3
ACAD_PLOTSETTINGS
350
45F5
  3
ACAD_PLOTSTYLENAME
350
45A5
  3
ACAD_SCALELIST
350
45DD
  3
ACAD_SECTIONVIEWSTYLE
350
45F1
  3
ACAD_TABLESTYLE
350
45DB
  3
ACAD_VISUALSTYLE
350
45C0
  3
ACDB_RECOMPOSE_DATA
350
47C7
  3
ACDBVARIABLEDICTIONARY
350
51
  0
DICTIONARY
  5
47AC
330
2
100
AcDbDictionary
280
     1
281
     1
  3
ACAD_LAYERSTATES
360
47AD
  0
DICTIONARY
  5
45FE
330
E
100
AcDbDictionary
280
     1
281
     1
  3
ADSK_XREC_LAYER_RECONCILED
360
45FF
  0
DICTIONARY
  5
4600
330
40
100
AcDbDictionary
280
     1
281
     1
  3
ADSK_XREC_LAYER_RECONCILED
360
4601
  0
DICTIONARY
  5
4602
330
41
100
AcDbDictionary
280
     1
281
     1
  3
ADSK_XREC_LAYER_RECONCILED
360
4603
  0
DICTIONARY
  5
4604
330
42
100
AcDbDictionary
280
     1
281
     1
  3
ADSK_XREC_LAYER_RECONCILED
360
4605
  0
DICTIONARY
  5
4606
330
43
100
AcDbDictionary
280
     1
281
     1
  3
ADSK_XREC_LAYER_RECONCILED
360
4607
  0
DICTIONARY
  5
4608
330
44
100
AcDbDictionary
280
     1
281
     1
  3
ADSK_XREC_LAYER_RECONCILED
360
4609
  0
DICTIONARY
  5
460A
330
45
100
AcDbDictionary
280
     1
281
     1
  3
ADSK_XREC_LAYER_RECONCILED
360
460B
  0
DICTIONARY
  5
460C
330
46
100
AcDbDictionary
280
     1
281
     1
  3
ADSK_XREC_LAYER_RECONCILED
360
460D
  0
DICTIONARY
  5
460E
330
47
100
AcDbDictionary
280
     1
281
     1
  3
ADSK_XREC_LAYER_RECONCILED
360
460F
  0
DICTIONARY
  5
4610
330
48
100
AcDbDictionary
280
     1
281
     1
  3
ADSK_XREC_LAYER_RECONCILED
360
4611
  0
DICTIONARY
  5
4612
330
49
100
AcDbDictionary
280
     1
281
     1
  3
ADSK_XREC_LAYER_RECONCILED
360
4613
  0
DICTIONARY
  5
4614
330
4A
100
AcDbDictionary
280
     1
281
     1
  3
ADSK_XREC_LAYER_RECONCILED
360
4615
  0
DICTIONARY
  5
4616
330
4B
100
AcDbDictionary
280
     1
281
     1
  3
ADSK_XREC_LAYER_RECONCILED
360
4617
  0
DICTIONARY
  5
4618
330
4C
100
AcDbDictionary
280
     1
281
     1
  3
ADSK_XREC_LAYER_RECONCILED
360
4619
  0
DICTIONARY
  5
461A
330
28F8
100
AcDbDictionary
280
     1
281
     1
  3
ADSK_XREC_LAYER_RECONCILED
360
461B
  0
DICTIONARY
  5
461C
330
28F9
100
AcDbDictionary
280
     1
281
     1
  3
ADSK_XREC_LAYER_RECONCILED
360
461D
  0
DICTIONARY
  5
461E
330
42FD
100
AcDbDictionary
280
     1
281
     1
  3
ADSK_XREC_LAYER_RECONCILED
360
461F
  0
DICTIONARY
  5
4756
330
17
100
AcDbDictionary
280
     1
281
     1
  3
ACAD_SORTENTS
360
4757
  0
XRECORD
  5
45FC
102
{ACAD_REACTORS
330
C
102
}
330
C
100
AcDbXrecord
280
     1
300
ACD
300
2023
300

  0
DICTIONARY
  5
45D9
102
{ACAD_REACTORS
330
C
102
}
330
C
100
AcDbDictionary
281
     1
  0
DICTIONARY
  5
45F3
102
{ACAD_REACTORS
330
C
102
}
330
C
100
AcDbDictionary
281
     1
  3
Metric50
350
45F4
  0
DICTIONARY
  5
D
102
{ACAD_REACTORS
330
C
102
}
330
C
100
AcDbDictionary
281
     1
  0
DICTIONARY
  5
45DA
102
{ACAD_REACTORS
330
C
102
}
330
C
100
AcDbDictionary
281
     1
  3
Model
350
45F6
  3
レイアウト1
350
45F7
  0
DICTIONARY
  5
45A7
102
{ACAD_REACTORS
330
C
102
}
330
C
100
AcDbDictionary
281
     1
  3
ByBlock
350
45B0
  3
ByLayer
350
45A8
  3
Global
350
45B8
  0
DICTIONARY
  5
45EF
102
{ACAD_REACTORS
330
C
102
}
330
C
100
AcDbDictionary
281
     1
  3
Standard
350
45F0
  0
DICTIONARY
  5
1A
102
{ACAD_REACTORS
330
C
102
}
330
C
100
AcDbDictionary
281
     1
  3
STANDARD
350
1B
  0
DICTIONARY
  5
45F5
102
{ACAD_REACTORS
330
C
102
}
330
C
100
AcDbDictionary
281
     1
  0
ACDBDICTIONARYWDFLT
  5
45A5
102
{ACAD_REACTORS
330
C
102
}
330
C
100
AcDbDictionary
281
     1
  3
Normal
350
45A6
100
AcDbDictionaryWithDefault
340
45A6
  0
DICTIONARY
  5
45DD
102
{ACAD_REACTORS
330
C
102
}
330
C
100
AcDbDictionary
281
     1
  3
A0
350
45DE
  3
A1
350
45DF
  3
A2
350
45E0
  3
A3
350
45E1
  3
A4
350
45E2
  3
A5
350
45E3
  3
A6
350
45E4
  3
A7
350
45E5
  3
A8
350
45E6
  3
A9
350
45E7
  3
B0
350
45E8
  3
B1
350
45E9
  3
B2
350
45EA
  3
B3
350
45EB
  3
B4
350
45EC
  3
B5
350
45ED
  3
B6
350
45EE
  0
DICTIONARY
  5
45F1
102
{ACAD_REACTORS
330
C
102
}
330
C
100
AcDbDictionary
281
     1
  3
Metric50
350
45F2
  0
DICTIONARY
  5
45DB
102
{ACAD_REACTORS
330
C
102
}
330
C
100
AcDbDictionary
281
     1
  3
Standard
350
45DC
  0
DICTIONARY
  5
45C0
102
{ACAD_REACTORS
330
C
102
}
330
C
100
AcDbDictionary
281
     1
  3
2dWireframe
350
45C6
  3
Basic
350
45C5
  3
Brighten
350
45CC
  3
ColorChange
350
45D0
  3
Conceptual
350
45C9
  3
Dim
350
45CB
  3
EdgeColorOff
350
45D8
  3
Facepattern
350
45CF
  3
Flat
350
45C1
  3
FlatWithEdges
350
45C2
  3
Gouraud
350
45C3
  3
GouraudWithEdges
350
45C4
  3
Hidden
350
45C8
  3
JitterOff
350
45D6
  3
Linepattern
350
45CE
  3
OverhangOff
350
45D7
  3
Realistic
350
45CA
  3
Shaded
350
45D5
  3
Shaded with edges
350
45D4
  3
Shades of Gray
350
45D1
  3
Sketchy
350
45D2
  3
Thicken
350
45CD
  3
Wireframe
350
45C7
  3
X-Ray
350
45D3
  0
XRECORD
  5
47C7
102
{ACAD_REACTORS
330
C
102
}
330
C
100
AcDbXrecord
280
     1
 90
        1
330
45DC
  0
DICTIONARY
  5
51
102
{ACAD_REACTORS
330
C
102
}
330
C
100
AcDbDictionary
281
     1
  3
CANNOSCALE
350
47C1
  3
CMLEADERSTYLE
350
47BD
  3
CTABLESTYLE
350
47BC
  3
CVIEWDETAILSTYLE
350
47BE
  3
CVIEWSECTIONSTYLE
350
47BF
  3
DIMADEC
350
52
  3
LAYEREVAL
350
47C3
  3
LAYERNOTIFY
350
47C4
  3
LIGHTINGUNITS
350
47C2
  3
MSLTSCALE
350
47C0
  0
DICTIONARY
  5
47AD
102
{ACAD_REACTORS
330
47AC
102
}
330
47AC
100
AcDbDictionary
281
     1
  0
XRECORD
  5
45FF
102
{ACAD_REACTORS
330
45FE
102
}
330
45FE
100
AcDbXrecord
280
     1
290
     1
  0
XRECORD
  5
4601
102
{ACAD_REACTORS
330
4600
102
}
330
4600
100
AcDbXrecord
280
     1
290
     1
  0
XRECORD
  5
4603
102
{ACAD_REACTORS
330
4602
102
}
330
4602
100
AcDbXrecord
280
     1
290
     1
  0
XRECORD
  5
4605
102
{ACAD_REACTORS
330
4604
102
}
330
4604
100
AcDbXrecord
280
     1
290
     1
  0
XRECORD
  5
4607
102
{ACAD_REACTORS
330
4606
102
}
330
4606
100
AcDbXrecord
280
     1
290
     1
  0
XRECORD
  5
4609
102
{ACAD_REACTORS
330
4608
102
}
330
4608
100
AcDbXrecord
280
     1
290
     1
  0
XRECORD
  5
460B
102
{ACAD_REACTORS
330
460A
102
}
330
460A
100
AcDbXrecord
280
     1
290
     1
  0
XRECORD
  5
460D
102
{ACAD_REACTORS
330
460C
102
}
330
460C
100
AcDbXrecord
280
     1
290
     1
  0
XRECORD
  5
460F
102
{ACAD_REACTORS
330
460E
102
}
330
460E
100
AcDbXrecord
280
     1
290
     1
  0
XRECORD
  5
4611
102
{ACAD_REACTORS
330
4610
102
}
330
4610
100
AcDbXrecord
280
     1
290
     1
  0
XRECORD
  5
4613
102
{ACAD_REACTORS
330
4612
102
}
330
4612
100
AcDbXrecord
280
     1
290
     1
  0
XRECORD
  5
4615
102
{ACAD_REACTORS
330
4614
102
}
330
4614
100
AcDbXrecord
280
     1
290
     1
  0
XRECORD
  5
4617
102
{ACAD_REACTORS
330
4616
102
}
330
4616
100
AcDbXrecord
280
     1
290
     1
  0
XRECORD
  5
4619
102
{ACAD_REACTORS
330
4618
102
}
330
4618
100
AcDbXrecord
280
     1
290
     1
  0
XRECORD
  5
461B
102
{ACAD_REACTORS
330
461A
102
}
330
461A
100
AcDbXrecord
280
     1
290
     1
  0
XRECORD
  5
461D
102
{ACAD_REACTORS
330
461C
102
}
330
461C
100
AcDbXrecord
280
     1
290
     1
  0
XRECORD
  5
461F
102
{ACAD_REACTORS
330
461E
102
}
330
461E
100
AcDbXrecord
280
     1
290
     1
  0
SORTENTSTABLE
  5
4757
102
{ACAD_REACTORS
330
4756
102
}
330
4756
100
AcDbSortentsTable
330
17
331
4636
  5
4638
331
4637
  5
463D
331
4638
  5
463F
331
463D
  5
4647
331
463E
  5
4648
331
463F
  5
464A
331
4647
  5
464B
331
4648
  5
464F
331
464A
  5
4651
331
464B
  5
4656
331
464F
  5
465D
331
4651
  5
465E
331
4656
  5
4664
331
465D
  5
4668
331
465E
  5
466A
331
465F
  5
466B
331
4664
  5
466C
331
4668
  5
466D
331
466A
  5
466E
331
466B
  5
466F
331
466C
  5
4670
331
466D
  5
4671
331
466E
  5
4672
331
466F
  5
4673
331
4670
  5
4674
331
4671
  5
4675
331
4672
  5
4676
331
4673
  5
4677
331
4674
  5
4678
331
4675
  5
4679
331
4676
  5
467A
331
4677
  5
467B
331
4678
  5
467C
331
4679
  5
467D
331
467A
  5
467E
331
467B
  5
467F
331
467C
  5
4680
331
467D
  5
4681
331
467E
  5
4682
331
467F
  5
4683
331
4680
  5
4684
331
4681
  5
4685
331
4682
  5
4686
331
4683
  5
4687
331
4684
  5
4688
331
4685
  5
4689
331
4686
  5
468A
331
4687
  5
4699
331
4688
  5
469C
331
4689
  5
46A3
331
468A
  5
46A7
331
4699
  5
46A8
331
469C
  5
46AF
331
46A1
  5
46B4
331
46A3
  5
46B5
331
46A7
  5
46BA
331
46A8
  5
46BB
331
46AF
  5
46BD
331
46B4
  5
46BE
331
46B5
  5
46BF
331
46BA
  5
46C0
331
46BB
  5
46C2
331
46BD
  5
46C3
331
46BE
  5
46C4
331
46BF
  5
46C5
331
46C0
  5
46C6
331
46C2
  5
46C9
331
46C3
  5
46CA
331
46C4
  5
46CE
331
46C5
  5
46CF
331
46C6
  5
46D0
331
46C9
  5
46D1
331
46CA
  5
46D2
331
46CE
  5
46D3
331
46CF
  5
46D4
331
46D0
  5
46D5
331
46D1
  5
46D6
331
46D2
  5
46D7
331
46D3
  5
46D8
331
46D4
  5
46D9
331
46D5
  5
46DA
331
46D6
  5
46DB
331
46D7
  5
46DF
331
46D8
  5
46E1
331
46D9
  5
46E2
331
46DA
  5
46E3
331
46DB
  5
46E4
331
46DF
  5
46E8
331
46E1
  5
46F0
331
46E2
  5
46F1
331
46E3
  5
46F2
331
46E4
  5
46F3
331
46E5
  5
46F4
331
46E8
  5
46F5
331
46F0
  5
46F6
331
46F1
  5
46F7
331
46F2
  5
46F8
331
46F3
  5
46F9
331
46F4
  5
46FA
331
46F5
  5
46FB
331
46F6
  5
46FD
331
46F7
  5
46FF
331
46F8
  5
4701
331
46F9
  5
4703
331
46FA
  5
4704
331
46FB
  5
4705
331
46FC
  5
4706
331
46FD
  5
4708
331
46FF
  5
4709
331
4700
  5
470A
331
4701
  5
470B
331
4702
  5
470C
331
4703
  5
470E
331
4704
  5
470F
331
4705
  5
4710
331
4706
  5
4711
331
4707
  5
4712
331
4708
  5
4713
331
4709
  5
4714
331
470A
  5
4715
331
470B
  5
4716
331
470C
  5
4717
331
470D
  5
4718
331
470E
  5
4719
331
470F
  5
471A
331
4710
  5
471B
331
4711
  5
471C
331
4712
  5
471D
331
4713
  5
471E
331
4714
  5
471F
331
4715
  5
4720
331
4716
  5
4721
331
4717
  5
4722
331
4718
  5
4723
331
4719
  5
4724
331
471A
  5
4725
331
471B
  5
4726
331
471C
  5
4727
331
471D
  5
4728
331
471E
  5
4729
331
471F
  5
472A
331
4720
  5
472B
331
4721
  5
472D
331
4722
  5
472E
331
4723
  5
472F
331
4724
  5
4730
331
4725
  5
4731
331
4726
  5
4732
331
4727
  5
4733
331
4728
  5
4736
331
4729
  5
4737
331
472A
  5
4738
331
472B
  5
4739
331
472C
  5
473A
331
472D
  5
473B
331
472E
  5
473C
331
472F
  5
473D
331
4730
  5
473E
331
4731
  5
473F
331
4732
  5
4740
331
4733
  5
4741
331
4734
  5
4742
331
4735
  5
4743
331
4736
  5
4744
331
4737
  5
4745
331
4738
  5
4746
331
4739
  5
4747
331
473A
  5
4748
331
473B
  5
4749
331
473C
  5
474A
331
473D
  5
474B
331
473E
  5
474C
331
473F
  5
474E
331
4740
  5
474F
331
4741
  5
4750
331
4742
  5
4751
331
4743
  5
4752
331
4744
  5
4753
331
4745
  5
4754
331
4746
  5
4755
331
4747
  5
4758
331
4748
  5
4759
331
4749
  5
475A
331
474A
  5
475B
331
474B
  5
475C
331
474C
  5
475D
331
474D
  5
475E
331
474E
  5
475F
331
474F
  5
4760
331
4750
  5
4761
331
4751
  5
4762
331
4752
  5
4763
331
4753
  5
4764
331
4754
  5
4765
331
4759
  5
4766
331
475A
  5
4767
331
475B
  5
4768
331
475C
  5
4769
331
475D
  5
476A
331
475E
  5
476B
331
475F
  5
476C
331
4760
  5
476D
331
4761
  5
476E
331
4762
  5
476F
331
4763
  5
4770
331
4764
  5
4771
331
4765
  5
4772
331
4766
  5
4773
331
4767
  5
4774
331
4768
  5
4775
331
4769
  5
4776
331
476A
  5
4777
331
476B
  5
4778
331
476C
  5
4779
331
476D
  5
477A
331
476E
  5
477B
331
476F
  5
477C
331
4770
  5
477D
331
4771
  5
477E
331
4772
  5
477F
331
4773
  5
4780
331
4774
  5
4781
331
4775
  5
4782
331
4776
  5
4783
331
4777
  5
4784
331
4778
  5
4785
331
4779
  5
4786
331
477A
  5
4787
331
477B
  5
4788
331
477C
  5
4789
331
477D
  5
478A
331
477E
  5
478B
331
477F
  5
478C
331
4780
  5
478D
331
4781
  5
478E
331
4782
  5
478F
331
4783
  5
4790
331
4784
  5
4791
331
4785
  5
479C
331
4786
  5
479D
331
4787
  5
479E
331
4788
  5
479F
331
4789
  5
47A0
331
478A
  5
47A1
331
478B
  5
47A2
331
478C
  5
47A3
331
478D
  5
47A4
331
478E
  5
47A5
331
478F
  5
4707
331
4790
  5
4637
331
4791
  5
46E5
331
479C
  5
474D
331
479D
  5
4735
331
479E
  5
4636
331
479F
  5
465F
331
47A0
  5
46A1
331
47A1
  5
463E
331
47A2
  5
470D
331
47A3
  5
46FE
331
47A4
  5
4734
331
47A5
  5
4702
  0
ACDBDETAILVIEWSTYLE
  5
45F4
102
{ACAD_REACTORS
330
45F3
102
}
330
45F3
100
AcDbModelDocViewStyle
 70
     0
  3
Metric50
290
     1
300
Metric50
 90
        0
100
AcDbDetailViewStyle
 70
     0
 71
     0
 90
        3
 71
     1
340
F
 62
   256
 40
5.0
340
0
 62
   256
 40
5.0
300

 40
0.0
280
     1
 71
     2
340
13
 90
       25
 62
   256
 71
     3
340
F
 62
   256
 40
5.0
 90
        0
 40
15.0
 90
        1
300
%<\AcVar ViewDetailId>% (%<\AcVar ViewScale \f "%sn">%)
 71
     4
340
13
 90
       25
 62
   256
340
13
 90
       25
 62
   256
280
     0
  0
LAYOUT
  5
45F6
102
{ACAD_REACTORS
330
45DA
102
}
330
45DA
100
AcDbPlotSettings
  1

  2
SHARP MX-5151 PS
  4

  6

 40
0.0
 41
0.0
 42
0.0
 43
0.0
 44
0.0
 45
0.0
 46
0.0
 47
0.0
 48
0.0
 49
0.0
140
0.0
141
0.0
142
1.0
143
1.0
 70
  1712
 72
     0
 73
     0
 74
     0
  7

 75
     0
147
1.0
 76
     0
 77
     2
 78
   300
148
0.0
149
0.0
100
AcDbLayout
  1
Model
 70
     1
 71
     0
 10
0.0
 20
0.0
 11
12.0
 21
9.0
 12
0.0
 22
0.0
 32
0.0
 14
0.0
 24
0.0
 34
0.0
 15
0.0
 25
0.0
 35
0.0
146
0.0
 13
0.0
 23
0.0
 33
0.0
 16
1.0
 26
0.0
 36
0.0
 17
0.0
 27
1.0
 37
0.0
 76
     0
330
17
331
45A3
  0
LAYOUT
  5
45F7
102
{ACAD_REACTORS
330
45DA
102
}
330
45DA
100
AcDbPlotSettings
  1

  2
SHARP MX-5151 PS
  4

  6

 40
0.0
 41
0.0
 42
0.0
 43
0.0
 44
0.0
 45
0.0
 46
0.0
 47
0.0
 48
0.0
 49
0.0
140
0.0
141
0.0
142
1.0
143
1.0
 70
   688
 72
     0
 73
     0
 74
     5
  7

 75
    16
147
1.0
 76
     0
 77
     2
 78
   300
148
0.0
149
0.0
100
AcDbLayout
  1
レイアウト1
 70
     0
 71
     1
 10
0.0
 20
0.0
 11
12.0
 21
9.0
 12
0.0
 22
0.0
 32
0.0
 14
1.000000000000000E+20
 24
1.000000000000000E+20
 34
1.000000000000000E+20
 15
-1.000000000000000E+20
 25
-1.000000000000000E+20
 35
-1.000000000000000E+20
146
0.0
 13
0.0
 23
0.0
 33
0.0
 16
1.0
 26
0.0
 36
0.0
 17
0.0
 27
1.0
 37
0.0
 76
     0
330
14
  0
MATERIAL
  5
45B0
102
{ACAD_XDICTIONARY
360
45B1
102
}
102
{ACAD_REACTORS
330
45A7
102
}
330
45A7
100
AcDbMaterial
  1
ByBlock
 72
     0
 43
0.0208333333333333
 43
0.0
 43
0.0
 43
0.0
 43
0.0
 43
0.0208333333333333
 43
0.0
 43
0.0
 43
0.0
 43
0.0
 43
1.0
 43
0.0
 43
0.0
 43
0.0
 43
0.0
 43
1.0
 77
     0
 47
0.0208333333333333
 47
0.0
 47
0.0
 47
0.0
 47
0.0
 47
0.0208333333333333
 47
0.0
 47
0.0
 47
0.0
 47
0.0
 47
1.0
 47
0.0
 47
0.0
 47
0.0
 47
0.0
 47
1.0
171
     0
 49
0.0208333333333333
 49
0.0
 49
0.0
 49
0.0
 49
0.0
 49
0.0208333333333333
 49
0.0
 49
0.0
 49
0.0
 49
0.0
 49
1.0
 49
0.0
 49
0.0
 49
0.0
 49
0.0
 49
1.0
175
     0
142
0.0208333333333333
142
0.0
142
0.0
142
0.0
142
0.0
142
0.0208333333333333
142
0.0
142
0.0
142
0.0
142
0.0
142
1.0
142
0.0
142
0.0
142
0.0
142
0.0
142
1.0
179
     0
144
0.0208333333333333
144
0.0
144
0.0
144
0.0
144
0.0
144
0.0208333333333333
144
0.0
144
0.0
144
0.0
144
0.0
144
1.0
144
0.0
144
0.0
144
0.0
144
0.0
144
1.0
147
0.0208333333333333
147
0.0
147
0.0
147
0.0
147
0.0
147
0.0208333333333333
147
0.0
147
0.0
147
0.0
147
0.0
147
1.0
147
0.0
147
0.0
147
0.0
147
0.0
147
1.0
  0
MATERIAL
  5
45A8
102
{ACAD_XDICTIONARY
360
45A9
102
}
102
{ACAD_REACTORS
330
45A7
102
}
330
45A7
100
AcDbMaterial
  1
ByLayer
 72
     0
 43
0.0208333333333333
 43
0.0
 43
0.0
 43
0.0
 43
0.0
 43
0.0208333333333333
 43
0.0
 43
0.0
 43
0.0
 43
0.0
 43
1.0
 43
0.0
 43
0.0
 43
0.0
 43
0.0
 43
1.0
 77
     0
 47
0.0208333333333333
 47
0.0
 47
0.0
 47
0.0
 47
0.0
 47
0.0208333333333333
 47
0.0
 47
0.0
 47
0.0
 47
0.0
 47
1.0
 47
0.0
 47
0.0
 47
0.0
 47
0.0
 47
1.0
171
     0
 49
0.0208333333333333
 49
0.0
 49
0.0
 49
0.0
 49
0.0
 49
0.0208333333333333
 49
0.0
 49
0.0
 49
0.0
 49
0.0
 49
1.0
 49
0.0
 49
0.0
 49
0.0
 49
0.0
 49
1.0
175
     0
142
0.0208333333333333
142
0.0
142
0.0
142
0.0
142
0.0
142
0.0208333333333333
142
0.0
142
0.0
142
0.0
142
0.0
142
1.0
142
0.0
142
0.0
142
0.0
142
0.0
142
1.0
179
     0
144
0.0208333333333333
144
0.0
144
0.0
144
0.0
144
0.0
144
0.0208333333333333
144
0.0
144
0.0
144
0.0
144
0.0
144
1.0
144
0.0
144
0.0
144
0.0
144
0.0
144
1.0
147
0.0208333333333333
147
0.0
147
0.0
147
0.0
147
0.0
147
0.0208333333333333
147
0.0
147
0.0
147
0.0
147
0.0
147
1.0
147
0.0
147
0.0
147
0.0
147
0.0
147
1.0
  0
MATERIAL
  5
45B8
102
{ACAD_XDICTIONARY
360
45B9
102
}
102
{ACAD_REACTORS
330
45A7
102
}
330
45A7
100
AcDbMaterial
  1
Global
 72
     0
 43
0.0208333333333333
 43
0.0
 43
0.0
 43
0.0
 43
0.0
 43
0.0208333333333333
 43
0.0
 43
0.0
 43
0.0
 43
0.0
 43
1.0
 43
0.0
 43
0.0
 43
0.0
 43
0.0
 43
1.0
 77
     0
 47
0.0208333333333333
 47
0.0
 47
0.0
 47
0.0
 47
0.0
 47
0.0208333333333333
 47
0.0
 47
0.0
 47
0.0
 47
0.0
 47
1.0
 47
0.0
 47
0.0
 47
0.0
 47
0.0
 47
1.0
171
     0
 49
0.0208333333333333
 49
0.0
 49
0.0
 49
0.0
 49
0.0
 49
0.0208333333333333
 49
0.0
 49
0.0
 49
0.0
 49
0.0
 49
1.0
 49
0.0
 49
0.0
 49
0.0
 49
0.0
 49
1.0
175
     0
142
0.0208333333333333
142
0.0
142
0.0
142
0.0
142
0.0
142
0.0208333333333333
142
0.0
142
0.0
142
0.0
142
0.0
142
1.0
142
0.0
142
0.0
142
0.0
142
0.0
142
1.0
179
     0
144
0.0208333333333333
144
0.0
144
0.0
144
0.0
144
0.0
144
0.0208333333333333
144
0.0
144
0.0
144
0.0
144
0.0
144
1.0
144
0.0
144
0.0
144
0.0
144
0.0
144
1.0
147
0.0208333333333333
147
0.0
147
0.0
147
0.0
147
0.0
147
0.0208333333333333
147
0.0
147
0.0
147
0.0
147
0.0
147
1.0
147
0.0
147
0.0
147
0.0
147
0.0
147
1.0
  0
MLEADERSTYLE
  5
45F0
102
{ACAD_REACTORS
330
45EF
102
}
330
45EF
100
AcDbMLeaderStyle
179
     2
170
     2
171
     1
172
     0
 90
        2
 40
0.0
 41
0.0
173
     1
 91
-1056964608
340
11
 92
       -2
290
     1
 42
2.0
291
     1
 43
0.36
  3
Standard
 44
4.0
300

342
F
174
     1
178
     6
175
     1
176
     0
 93
-1056964608
 45
4.0
292
     0
297
     0
 46
4.0
 94
-1056964608
 47
1.0
 49
1.0
140
1.0
293
     1
141
0.0
294
     1
177
     0
142
1.0
295
     1
296
     0
143
0.125
271
     0
272
     9
273
     9
298
     1
  0
MLINESTYLE
  5
1B
102
{ACAD_REACTORS
330
1A
102
}
330
1A
100
AcDbMlineStyle
  2
STANDARD
 70
     0
  3

 62
   256
 51
90.0
 52
90.0
 71
     2
 49
0.5
 62
   256
  6
BYLAYER
 49
-0.5
 62
   256
  6
BYLAYER
  0
ACDBPLACEHOLDER
  5
45A6
102
{ACAD_REACTORS
330
45A5
102
}
330
45A5
  0
SCALE
  5
45DE
102
{ACAD_REACTORS
330
45DD
102
}
330
45DD
100
AcDbScale
 70
     0
300
1:1
140
1.0
141
1.0
290
     1
  0
SCALE
  5
45DF
102
{ACAD_REACTORS
330
45DD
102
}
330
45DD
100
AcDbScale
 70
     0
300
1:2
140
1.0
141
2.0
290
     0
  0
SCALE
  5
45E0
102
{ACAD_REACTORS
330
45DD
102
}
330
45DD
100
AcDbScale
 70
     0
300
1:4
140
1.0
141
4.0
290
     0
  0
SCALE
  5
45E1
102
{ACAD_REACTORS
330
45DD
102
}
330
45DD
100
AcDbScale
 70
     0
300
1:5
140
1.0
141
5.0
290
     0
  0
SCALE
  5
45E2
102
{ACAD_REACTORS
330
45DD
102
}
330
45DD
100
AcDbScale
 70
     0
300
1:8
140
1.0
141
8.0
290
     0
  0
SCALE
  5
45E3
102
{ACAD_REACTORS
330
45DD
102
}
330
45DD
100
AcDbScale
 70
     0
300
1:10
140
1.0
141
10.0
290
     0
  0
SCALE
  5
45E4
102
{ACAD_REACTORS
330
45DD
102
}
330
45DD
100
AcDbScale
 70
     0
300
1:16
140
1.0
141
16.0
290
     0
  0
SCALE
  5
45E5
102
{ACAD_REACTORS
330
45DD
102
}
330
45DD
100
AcDbScale
 70
     0
300
1:20
140
1.0
141
20.0
290
     0
  0
SCALE
  5
45E6
102
{ACAD_REACTORS
330
45DD
102
}
330
45DD
100
AcDbScale
 70
     0
300
1:30
140
1.0
141
30.0
290
     0
  0
SCALE
  5
45E7
102
{ACAD_REACTORS
330
45DD
102
}
330
45DD
100
AcDbScale
 70
     0
300
1:40
140
1.0
141
40.0
290
     0
  0
SCALE
  5
45E8
102
{ACAD_REACTORS
330
45DD
102
}
330
45DD
100
AcDbScale
 70
     0
300
1:50
140
1.0
141
50.0
290
     0
  0
SCALE
  5
45E9
102
{ACAD_REACTORS
330
45DD
102
}
330
45DD
100
AcDbScale
 70
     0
300
1:100
140
1.0
141
100.0
290
     0
  0
SCALE
  5
45EA
102
{ACAD_REACTORS
330
45DD
102
}
330
45DD
100
AcDbScale
 70
     0
300
2:1
140
2.0
141
1.0
290
     0
  0
SCALE
  5
45EB
102
{ACAD_REACTORS
330
45DD
102
}
330
45DD
100
AcDbScale
 70
     0
300
4:1
140
4.0
141
1.0
290
     0
  0
SCALE
  5
45EC
102
{ACAD_REACTORS
330
45DD
102
}
330
45DD
100
AcDbScale
 70
     0
300
8:1
140
8.0
141
1.0
290
     0
  0
SCALE
  5
45ED
102
{ACAD_REACTORS
330
45DD
102
}
330
45DD
100
AcDbScale
 70
     0
300
10:1
140
10.0
141
1.0
290
     0
  0
SCALE
  5
45EE
102
{ACAD_REACTORS
330
45DD
102
}
330
45DD
100
AcDbScale
 70
     0
300
100:1
140
100.0
141
1.0
290
     0
  0
ACDBSECTIONVIEWSTYLE
  5
45F2
102
{ACAD_REACTORS
330
45F1
102
}
330
45F1
100
AcDbModelDocViewStyle
 70
     0
  3
Metric50
290
     1
300
Metric50
 90
        0
100
AcDbSectionViewStyle
 70
     0
 71
     0
 90
      102
 71
     1
340
F
 62
   256
 40
5.0
340
0
340
0
 62
   256
 40
5.0
300
I, O, Q, S, X, Z
 40
10.0
 90
        0
 40
2.5
 90
        0
 71
     2
340
13
 90
       25
 62
   256
340
13
 90
       50
 62
   256
 40
5.0
 40
2.5
 40
5.0
 71
     3
340
F
 62
   256
 40
5.0
 90
        0
 40
15.0
 90
        1
300
%<\AcVar ViewSectionStartId>%-%<\AcVar ViewSectionEndId>% (%<\AcVar ViewScale \f "%sn">%)
 71
     4
 62
   256
 62
   257
300
ANSI31
 40
1.0
 90
        0
290
     0
290
     0
 90
        6
 40
0.0
 40
1.570796326794896
 40
0.2617993877991494
 40
1.308996938995747
 40
-0.2617993877991494
 40
1.832595714594046
  0
TABLESTYLE
  5
45DC
102
{ACAD_XDICTIONARY
360
47C5
102
}
102
{ACAD_REACTORS
330
45DB
102
}
330
45DB
100
AcDbTableStyle
280
     0
  3
Standard
 70
     0
 71
     0
 40
1.5
 41
1.5
280
     0
281
     0
  7
STANDARD
140
4.5
170
     2
 62
     0
 63
     7
283
     0
 90
      512
 91
        0
  1

274
    -2
284
     1
 64
     0
275
    -2
285
     1
 65
     0
276
    -2
286
     1
 66
     0
277
    -2
287
     1
 67
     0
278
    -2
288
     1
 68
     0
279
    -2
289
     1
 69
     0
  7
STANDARD
140
6.0
170
     5
 62
     0
 63
     7
283
     0
 90
      512
 91
        0
  1

274
    -2
284
     1
 64
     0
275
    -2
285
     1
 65
     0
276
    -2
286
     1
 66
     0
277
    -2
287
     1
 67
     0
278
    -2
288
     1
 68
     0
279
    -2
289
     1
 69
     0
  7
STANDARD
140
4.5
170
     5
 62
     0
 63
     7
283
     0
 90
      512
 91
        0
  1

274
    -2
284
     1
 64
     0
275
    -2
285
     1
 65
     0
276
    -2
286
     1
 66
     0
277
    -2
287
     1
 67
     0
278
    -2
288
     1
 68
     0
279
    -2
289
     1
 69
     0
  0
VISUALSTYLE
  5
45C6
102
{ACAD_REACTORS
330
45C0
102
}
330
45C0
100
AcDbVisualStyle
  2
2dWireframe
 70
     4
177
     3
291
     0
 70
    58
 90
        0
176
     1
 90
        2
176
     1
 90
        0
176
     1
 90
        0
176
     1
 40
0.6
176
     1
 40
30.0
176
     1
 62
     7
420
 16777215
176
     1
 90
        1
176
     1
 90
        4
176
     1
 62
     7
176
     1
 62
   257
176
     1
 90
        1
176
     1
 90
        1
176
     1
 40
1.0
176
     1
 90
        0
176
     1
 62
   257
176
     1
 40
1.0
176
     1
 90
        1
176
     1
 90
        6
176
     1
 90
        2
176
     1
 62
     7
176
     1
 90
        5
176
     1
 90
        0
176
     1
 90
        0
176
     1
290
     0
176
     1
 90
        1
176
     1
 40
0.0
176
     1
 90
        0
176
     1
290
     1
176
     1
290
     1
176
     1
290
     0
176
     1
290
     0
176
     1
290
     0
176
     1
290
     0
176
     1
290
     0
176
     1
290
     0
176
     1
290
     0
176
     1
 90
       50
176
     1
 40
0.0
176
     1
 40
1.0
176
     1
 90
        0
176
     1
 62
    18
420
        0
176
     1
 90
       50
176
     1
 90
        3
176
     1
 62
     5
420
      255
176
     1
290
     0
176
     1
 90
       50
176
     1
 90
       50
176
     1
 90
       50
176
     1
290
     0
176
     1
 90
       50
176
     1
 62
   256
176
     0
 40
1.0
176
     0
 90
        2
176
     1
  1
strokes_ogs.tif
176
     1
290
     0
176
     1
 40
1.0
176
     1
 40
1.0
176
     1
  0
VISUALSTYLE
  5
45C5
102
{ACAD_REACTORS
330
45C0
102
}
330
45C0
100
AcDbVisualStyle
  2
Basic
 70
     7
177
     3
291
     1
 70
    58
 90
        1
176
     1
 90
        0
176
     1
 90
        1
176
     1
 90
        0
176
     1
 40
0.6
176
     1
 40
30.0
176
     1
 62
     7
420
 16777215
176
     1
 90
        0
176
     1
 90
        4
176
     1
 62
     7
176
     1
 62
   257
176
     1
 90
        1
176
     1
 90
        1
176
     1
 40
1.0
176
     1
 90
        8
176
     1
 62
     7
176
     1
 40
1.0
176
     1
 90
        1
176
     1
 90
        6
176
     1
 90
        2
176
     1
 62
     7
176
     1
 90
        5
176
     1
 90
        0
176
     1
 90
        0
176
     1
290
     0
176
     1
 90
        1
176
     1
 40
0.0
176
     1
 90
        0
176
     1
290
     0
176
     1
290
     1
176
     1
290
     1
176
     1
290
     0
176
     1
290
     0
176
     1
290
     0
176
     1
290
     0
176
     1
290
     0
176
     1
290
     0
176
     1
 90
       50
176
     1
 40
0.0
176
     1
 40
1.0
176
     1
 90
        0
176
     1
 62
    18
420
        0
176
     1
 90
       50
176
     1
 90
        3
176
     1
 62
     5
420
      255
176
     1
290
     0
176
     1
 90
       50
176
     1
 90
       50
176
     1
 90
       50
176
     1
290
     0
176
     1
 90
       50
176
     1
 62
   256
176
     0
 40
1.0
176
     0
 90
        2
176
     1
  1
strokes_ogs.tif
176
     1
290
     0
176
     1
 40
1.0
176
     1
 40
1.0
176
     1
  0
VISUALSTYLE
  5
45CC
102
{ACAD_REACTORS
330
45C0
102
}
330
45C0
100
AcDbVisualStyle
  2
Brighten
 70
    12
177
     3
291
     1
 70
    58
 90
        2
176
     1
 90
        2
176
     1
 90
        0
176
     1
 90
        0
176
     1
 40
0.6
176
     1
 40
30.0
176
     1
 62
     7
420
 16777215
176
     1
 90
        1
176
     1
 90
        4
176
     1
 62
     7
176
     1
 62
   257
176
     1
 90
        1
176
     1
 90
        1
176
     1
 40
1.0
176
     1
 90
        8
176
     1
 62
     7
176
     1
 40
1.0
176
     1
 90
        1
176
     1
 90
        6
176
     1
 90
        2
176
     1
 62
     7
176
     1
 90
        5
176
     1
 90
        0
176
     1
 90
        0
176
     1
290
     0
176
     1
 90
        1
176
     1
 40
50.0
176
     1
 90
        0
176
     1
290
     0
176
     1
290
     1
176
     1
290
     1
176
     1
290
     0
176
     1
290
     0
176
     1
290
     0
176
     1
290
     0
176
     1
290
     0
176
     1
290
     0
176
     1
 90
       50
176
     1
 40
0.0
176
     1
 40
1.0
176
     1
 90
        0
176
     1
 62
    18
420
        0
176
     1
 90
       50
176
     1
 90
        3
176
     1
 62
     5
420
      255
176
     1
290
     0
176
     1
 90
       50
176
     1
 90
       50
176
     1
 90
       50
176
     1
290
     0
176
     1
 90
       50
176
     1
 62
   256
176
     0
 40
1.0
176
     0
 90
        2
176
     1
  1
strokes_ogs.tif
176
     1
290
     0
176
     1
 40
1.0
176
     1
 40
1.0
176
     1
  0
VISUALSTYLE
  5
45D0
102
{ACAD_REACTORS
330
45C0
102
}
330
45C0
100
AcDbVisualStyle
  2
ColorChange
 70
    16
177
     3
291
     1
 70
    58
 90
        2
176
     1
 90
        2
176
     1
 90
        3
176
     1
 90
        0
176
     1
 40
0.6
176
     1
 40
30.0
176
     1
 62
     8
420
  8421504
176
     1
 90
        1
176
     1
 90
        4
176
     1
 62
     7
176
     1
 62
   257
176
     1
 90
        1
176
     1
 90
        1
176
     1
 40
1.0
176
     1
 90
        8
176
     1
 62
     8
420
  8421504
176
     1
 40
1.0
176
     1
 90
        1
176
     1
 90
        6
176
     1
 90
        2
176
     1
 62
     7
176
     1
 90
        5
176
     1
 90
        0
176
     1
 90
        0
176
     1
290
     0
176
     1
 90
        1
176
     1
 40
0.0
176
     1
 90
        0
176
     1
290
     0
176
     1
290
     1
176
     1
290
     1
176
     1
290
     0
176
     1
290
     0
176
     1
290
     0
176
     1
290
     0
176
     1
290
     0
176
     1
290
     0
176
     1
 90
       50
176
     1
 40
0.0
176
     1
 40
1.0
176
     1
 90
        0
176
     1
 62
    18
420
        0
176
     1
 90
       50
176
     1
 90
        3
176
     1
 62
     5
420
      255
176
     1
290
     0
176
     1
 90
       50
176
     1
 90
       50
176
     1
 90
       50
176
     1
290
     0
176
     1
 90
       50
176
     1
 62
   256
176
     0
 40
1.0
176
     0
 90
        2
176
     1
  1
strokes_ogs.tif
176
     1
290
     0
176
     1
 40
1.0
176
     1
 40
1.0
176
     1
  0
VISUALSTYLE
  5
45C9
102
{ACAD_REACTORS
330
45C0
102
}
330
45C0
100
AcDbVisualStyle
  2
Conceptual
 70
     9
177
     3
291
     0
 70
    58
 90
        3
176
     1
 90
        2
176
     1
 90
        0
176
     1
 90
        0
176
     1
 40
0.6
176
     1
 40
30.0
176
     1
 62
     7
420
 16777215
176
     1
 90
        2
176
     1
 90
        2
176
     1
 62
     7
176
     1
 62
   257
176
     1
 90
        1
176
     1
 90
        1
176
     1
 40
179.0
176
     1
 90
        8
176
     1
 62
     7
176
     1
 40
1.0
176
     1
 90
        1
176
     1
 90
        6
176
     1
 90
        2
176
     1
 62
     7
176
     1
 90
        3
176
     1
 90
        0
176
     1
 90
        0
176
     1
290
     0
176
     1
 90
        1
176
     1
 40
0.0
176
     1
 90
        0
176
     1
290
     0
176
     1
290
     1
176
     1
290
     1
176
     1
290
     0
176
     1
290
     0
176
     1
290
     0
176
     1
290
     0
176
     1
290
     0
176
     1
290
     0
176
     1
 90
       50
176
     1
 40
0.0
176
     1
 40
1.0
176
     1
 90
        0
176
     1
 62
    18
420
        0
176
     1
 90
       50
176
     1
 90
        3
176
     1
 62
     5
420
      255
176
     1
290
     0
176
     1
 90
       50
176
     1
 90
       50
176
     1
 90
       50
176
     1
290
     0
176
     1
 90
       50
176
     1
 62
   256
176
     0
 40
1.0
176
     0
 90
        2
176
     1
  1
strokes_ogs.tif
176
     1
290
     0
176
     1
 40
1.0
176
     1
 40
1.0
176
     1
  0
VISUALSTYLE
  5
45CB
102
{ACAD_REACTORS
330
45C0
102
}
330
45C0
100
AcDbVisualStyle
  2
Dim
 70
    11
177
     3
291
     1
 70
    58
 90
        2
176
     1
 90
        2
176
     1
 90
        0
176
     1
 90
        0
176
     1
 40
0.6
176
     1
 40
30.0
176
     1
 62
     7
420
 16777215
176
     1
 90
        1
176
     1
 90
        4
176
     1
 62
     7
176
     1
 62
   257
176
     1
 90
        1
176
     1
 90
        1
176
     1
 40
1.0
176
     1
 90
        8
176
     1
 62
     7
176
     1
 40
1.0
176
     1
 90
        1
176
     1
 90
        6
176
     1
 90
        2
176
     1
 62
     7
176
     1
 90
        5
176
     1
 90
        0
176
     1
 90
        0
176
     1
290
     0
176
     1
 90
        1
176
     1
 40
-50.0
176
     1
 90
        0
176
     1
290
     0
176
     1
290
     1
176
     1
290
     1
176
     1
290
     0
176
     1
290
     0
176
     1
290
     0
176
     1
290
     0
176
     1
290
     0
176
     1
290
     0
176
     1
 90
       50
176
     1
 40
0.0
176
     1
 40
1.0
176
     1
 90
        0
176
     1
 62
    18
420
        0
176
     1
 90
       50
176
     1
 90
        3
176
     1
 62
     5
420
      255
176
     1
290
     0
176
     1
 90
       50
176
     1
 90
       50
176
     1
 90
       50
176
     1
290
     0
176
     1
 90
       50
176
     1
 62
   256
176
     0
 40
1.0
176
     0
 90
        2
176
     1
  1
strokes_ogs.tif
176
     1
290
     0
176
     1
 40
1.0
176
     1
 40
1.0
176
     1
  0
VISUALSTYLE
  5
45D8
102
{ACAD_REACTORS
330
45C0
102
}
330
45C0
100
AcDbVisualStyle
  2
EdgeColorOff
 70
    22
177
     3
291
     1
 70
    58
 90
        2
176
     0
 90
        2
176
     0
 90
        0
176
     0
 90
        0
176
     0
 40
0.6
176
     0
 40
30.0
176
     0
 62
     7
420
 16777215
176
     0
 90
        1
176
     0
 90
        4
176
     0
 62
     7
176
     0
 62
   257
176
     0
 90
        1
176
     0
 90
        1
176
     0
 40
1.0
176
     0
 90
        8
176
     2
 62
     7
176
     0
 40
1.0
176
     0
 90
        1
176
     0
 90
        6
176
     0
 90
        2
176
     0
 62
     7
176
     0
 90
        5
176
     0
 90
        0
176
     0
 90
        0
176
     0
290
     0
176
     0
 90
        1
176
     0
 40
0.0
176
     0
 90
        0
176
     0
290
     0
176
     0
290
     1
176
     0
290
     1
176
     0
290
     0
176
     0
290
     0
176
     0
290
     0
176
     0
290
     0
176
     0
290
     0
176
     0
290
     0
176
     0
 90
       50
176
     0
 40
0.0
176
     0
 40
1.0
176
     0
 90
        0
176
     0
 62
    18
420
        0
176
     0
 90
       50
176
     0
 90
        3
176
     0
 62
     5
420
      255
176
     0
290
     0
176
     0
 90
       50
176
     0
 90
       50
176
     0
 90
       50
176
     0
290
     0
176
     0
 90
       50
176
     0
 62
   256
176
     0
 40
1.0
176
     0
 90
        2
176
     0
  1
strokes_ogs.tif
176
     0
290
     0
176
     0
 40
1.0
176
     0
 40
1.0
176
     0
  0
VISUALSTYLE
  5
45CF
102
{ACAD_REACTORS
330
45C0
102
}
330
45C0
100
AcDbVisualStyle
  2
Facepattern
 70
    15
177
     3
291
     1
 70
    58
 90
        2
176
     1
 90
        2
176
     1
 90
        0
176
     1
 90
        0
176
     1
 40
0.6
176
     1
 40
30.0
176
     1
 62
     7
420
 16777215
176
     1
 90
        1
176
     1
 90
        4
176
     1
 62
     7
176
     1
 62
   257
176
     1
 90
        1
176
     1
 90
        1
176
     1
 40
1.0
176
     1
 90
        8
176
     1
 62
     7
176
     1
 40
1.0
176
     1
 90
        1
176
     1
 90
        6
176
     1
 90
        2
176
     1
 62
     7
176
     1
 90
        5
176
     1
 90
        0
176
     1
 90
        0
176
     1
290
     0
176
     1
 90
        1
176
     1
 40
0.0
176
     1
 90
        0
176
     1
290
     0
176
     1
290
     1
176
     1
290
     1
176
     1
290
     0
176
     1
290
     0
176
     1
290
     0
176
     1
290
     0
176
     1
290
     0
176
     1
290
     0
176
     1
 90
       50
176
     1
 40
0.0
176
     1
 40
1.0
176
     1
 90
        0
176
     1
 62
    18
420
        0
176
     1
 90
       50
176
     1
 90
        3
176
     1
 62
     5
420
      255
176
     1
290
     0
176
     1
 90
       50
176
     1
 90
       50
176
     1
 90
       50
176
     1
290
     0
176
     1
 90
       50
176
     1
 62
   256
176
     0
 40
1.0
176
     0
 90
        2
176
     1
  1
strokes_ogs.tif
176
     1
290
     0
176
     1
 40
1.0
176
     1
 40
1.0
176
     1
  0
VISUALSTYLE
  5
45C1
102
{ACAD_REACTORS
330
45C0
102
}
330
45C0
100
AcDbVisualStyle
  2
Flat
 70
     0
177
     3
291
     1
 70
    58
 90
        2
176
     1
 90
        1
176
     1
 90
        1
176
     1
 90
        2
176
     1
 40
0.6
176
     1
 40
30.0
176
     1
 62
     7
420
 16777215
176
     1
 90
        0
176
     1
 90
        0
176
     1
 62
     7
176
     1
 62
   257
176
     1
 90
        1
176
     1
 90
        1
176
     1
 40
1.0
176
     1
 90
        8
176
     1
 62
     7
176
     1
 40
1.0
176
     1
 90
        1
176
     1
 90
        6
176
     1
 90
        2
176
     1
 62
     7
176
     1
 90
        5
176
     1
 90
        0
176
     1
 90
        0
176
     1
290
     0
176
     1
 90
       13
176
     1
 40
0.0
176
     1
 90
        0
176
     1
290
     0
176
     1
290
     1
176
     1
290
     1
176
     1
290
     0
176
     1
290
     0
176
     1
290
     0
176
     1
290
     0
176
     1
290
     0
176
     1
290
     0
176
     1
 90
       50
176
     1
 40
0.0
176
     1
 40
1.0
176
     1
 90
        0
176
     1
 62
    18
420
        0
176
     1
 90
       50
176
     1
 90
        3
176
     1
 62
     5
420
      255
176
     1
290
     0
176
     1
 90
       50
176
     1
 90
       50
176
     1
 90
       50
176
     1
290
     0
176
     1
 90
       50
176
     1
 62
   256
176
     0
 40
1.0
176
     0
 90
        2
176
     1
  1
strokes_ogs.tif
176
     1
290
     0
176
     1
 40
1.0
176
     1
 40
1.0
176
     1
  0
VISUALSTYLE
  5
45C2
102
{ACAD_REACTORS
330
45C0
102
}
330
45C0
100
AcDbVisualStyle
  2
FlatWithEdges
 70
     1
177
     3
291
     1
 70
    58
 90
        2
176
     1
 90
        1
176
     1
 90
        1
176
     1
 90
        2
176
     1
 40
0.6
176
     1
 40
30.0
176
     1
 62
     7
420
 16777215
176
     1
 90
        1
176
     1
 90
        0
176
     1
 62
     7
176
     1
 62
   257
176
     1
 90
        1
176
     1
 90
        1
176
     1
 40
1.0
176
     1
 90
        0
176
     1
 62
   257
176
     1
 40
1.0
176
     1
 90
        1
176
     1
 90
        6
176
     1
 90
        2
176
     1
 62
     7
176
     1
 90
        5
176
     1
 90
        0
176
     1
 90
        0
176
     1
290
     0
176
     1
 90
       13
176
     1
 40
0.0
176
     1
 90
        0
176
     1
290
     0
176
     1
290
     1
176
     1
290
     1
176
     1
290
     0
176
     1
290
     0
176
     1
290
     0
176
     1
290
     0
176
     1
290
     0
176
     1
290
     0
176
     1
 90
       50
176
     1
 40
0.0
176
     1
 40
1.0
176
     1
 90
        0
176
     1
 62
    18
420
        0
176
     1
 90
       50
176
     1
 90
        3
176
     1
 62
     5
420
      255
176
     1
290
     0
176
     1
 90
       50
176
     1
 90
       50
176
     1
 90
       50
176
     1
290
     0
176
     1
 90
       50
176
     1
 62
   256
176
     0
 40
1.0
176
     0
 90
        2
176
     1
  1
strokes_ogs.tif
176
     1
290
     0
176
     1
 40
1.0
176
     1
 40
1.0
176
     1
  0
VISUALSTYLE
  5
45C3
102
{ACAD_REACTORS
330
45C0
102
}
330
45C0
100
AcDbVisualStyle
  2
Gouraud
 70
     2
177
     3
291
     1
 70
    58
 90
        2
176
     1
 90
        2
176
     1
 90
        1
176
     1
 90
        2
176
     1
 40
0.6
176
     1
 40
30.0
176
     1
 62
     7
420
 16777215
176
     1
 90
        0
176
     1
 90
        0
176
     1
 62
     7
176
     1
 62
   257
176
     1
 90
        1
176
     1
 90
        1
176
     1
 40
1.0
176
     1
 90
        0
176
     1
 62
     7
176
     1
 40
1.0
176
     1
 90
        1
176
     1
 90
        6
176
     1
 90
        2
176
     1
 62
     7
176
     1
 90
        5
176
     1
 90
        0
176
     1
 90
        0
176
     1
290
     0
176
     1
 90
       13
176
     1
 40
0.0
176
     1
 90
        0
176
     1
290
     0
176
     1
290
     1
176
     1
290
     1
176
     1
290
     0
176
     1
290
     0
176
     1
290
     0
176
     1
290
     0
176
     1
290
     0
176
     1
290
     0
176
     1
 90
       50
176
     1
 40
0.0
176
     1
 40
1.0
176
     1
 90
        0
176
     1
 62
    18
420
        0
176
     1
 90
       50
176
     1
 90
        3
176
     1
 62
     5
420
      255
176
     1
290
     0
176
     1
 90
       50
176
     1
 90
       50
176
     1
 90
       50
176
     1
290
     0
176
     1
 90
       50
176
     1
 62
   256
176
     0
 40
1.0
176
     0
 90
        2
176
     1
  1
strokes_ogs.tif
176
     1
290
     0
176
     1
 40
1.0
176
     1
 40
1.0
176
     1
  0
VISUALSTYLE
  5
45C4
102
{ACAD_REACTORS
330
45C0
102
}
330
45C0
100
AcDbVisualStyle
  2
GouraudWithEdges
 70
     3
177
     3
291
     1
 70
    58
 90
        2
176
     1
 90
        2
176
     1
 90
        1
176
     1
 90
        2
176
     1
 40
0.6
176
     1
 40
30.0
176
     1
 62
     7
420
 16777215
176
     1
 90
        1
176
     1
 90
        0
176
     1
 62
     7
176
     1
 62
   257
176
     1
 90
        1
176
     1
 90
        1
176
     1
 40
1.0
176
     1
 90
        0
176
     1
 62
   257
176
     1
 40
1.0
176
     1
 90
        1
176
     1
 90
        6
176
     1
 90
        2
176
     1
 62
     7
176
     1
 90
        5
176
     1
 90
        0
176
     1
 90
        0
176
     1
290
     0
176
     1
 90
       13
176
     1
 40
0.0
176
     1
 90
        0
176
     1
290
     0
176
     1
290
     1
176
     1
290
     1
176
     1
290
     0
176
     1
290
     0
176
     1
290
     0
176
     1
290
     0
176
     1
290
     0
176
     1
290
     0
176
     1
 90
       50
176
     1
 40
0.0
176
     1
 40
1.0
176
     1
 90
        0
176
     1
 62
    18
420
        0
176
     1
 90
       50
176
     1
 90
        3
176
     1
 62
     5
420
      255
176
     1
290
     0
176
     1
 90
       50
176
     1
 90
       50
176
     1
 90
       50
176
     1
290
     0
176
     1
 90
       50
176
     1
 62
   256
176
     0
 40
1.0
176
     0
 90
        2
176
     1
  1
strokes_ogs.tif
176
     1
290
     0
176
     1
 40
1.0
176
     1
 40
1.0
176
     1
  0
VISUALSTYLE
  5
45C8
102
{ACAD_REACTORS
330
45C0
102
}
330
45C0
100
AcDbVisualStyle
  2
Hidden
 70
     6
177
     3
291
     0
 70
    58
 90
        1
176
     1
 90
        2
176
     1
 90
        2
176
     1
 90
        0
176
     1
 40
0.6
176
     1
 40
30.0
176
     1
 62
     7
420
 16777215
176
     1
 90
        2
176
     1
 90
        2
176
     1
 62
     7
176
     1
 62
   257
176
     1
 90
        2
176
     1
 90
        1
176
     1
 40
40.0
176
     1
 90
        0
176
     1
 62
   257
176
     1
 40
1.0
176
     1
 90
        1
176
     1
 90
        6
176
     1
 90
        2
176
     1
 62
     7
176
     1
 90
        3
176
     1
 90
        0
176
     1
 90
        0
176
     1
290
     0
176
     1
 90
        1
176
     1
 40
0.0
176
     1
 90
        0
176
     1
290
     0
176
     1
290
     1
176
     1
290
     1
176
     1
290
     0
176
     1
290
     0
176
     1
290
     0
176
     1
290
     0
176
     1
290
     0
176
     1
290
     0
176
     1
 90
       50
176
     1
 40
0.0
176
     1
 40
1.0
176
     1
 90
        0
176
     1
 62
    18
420
        0
176
     1
 90
       50
176
     1
 90
        3
176
     1
 62
     5
420
      255
176
     1
290
     0
176
     1
 90
       50
176
     1
 90
       50
176
     1
 90
       50
176
     1
290
     0
176
     1
 90
       50
176
     1
 62
   256
176
     0
 40
1.0
176
     0
 90
        2
176
     1
  1
strokes_ogs.tif
176
     1
290
     0
176
     1
 40
1.0
176
     1
 40
1.0
176
     1
  0
VISUALSTYLE
  5
45D6
102
{ACAD_REACTORS
330
45C0
102
}
330
45C0
100
AcDbVisualStyle
  2
JitterOff
 70
    20
177
     3
291
     1
 70
    58
 90
        2
176
     0
 90
        2
176
     0
 90
        0
176
     0
 90
        0
176
     0
 40
0.6
176
     0
 40
30.0
176
     0
 62
     7
420
 16777215
176
     0
 90
        1
176
     0
 90
        4
176
     0
 62
     7
176
     0
 62
   257
176
     0
 90
        1
176
     0
 90
        1
176
     0
 40
1.0
176
     0
 90
       10
176
     2
 62
     7
176
     0
 40
1.0
176
     0
 90
        1
176
     0
 90
        6
176
     0
 90
        2
176
     0
 62
     7
176
     0
 90
        5
176
     0
 90
        0
176
     0
 90
        0
176
     0
290
     0
176
     0
 90
        1
176
     0
 40
0.0
176
     0
 90
        0
176
     0
290
     0
176
     0
290
     1
176
     0
290
     1
176
     0
290
     0
176
     0
290
     0
176
     0
290
     0
176
     0
290
     0
176
     0
290
     0
176
     0
290
     0
176
     0
 90
       50
176
     0
 40
0.0
176
     0
 40
1.0
176
     0
 90
        0
176
     0
 62
    18
420
        0
176
     0
 90
       50
176
     0
 90
        3
176
     0
 62
     5
420
      255
176
     0
290
     0
176
     0
 90
       50
176
     0
 90
       50
176
     0
 90
       50
176
     0
290
     0
176
     0
 90
       50
176
     0
 62
   256
176
     0
 40
1.0
176
     0
 90
        2
176
     0
  1
strokes_ogs.tif
176
     0
290
     0
176
     0
 40
1.0
176
     0
 40
1.0
176
     0
  0
VISUALSTYLE
  5
45CE
102
{ACAD_REACTORS
330
45C0
102
}
330
45C0
100
AcDbVisualStyle
  2
Linepattern
 70
    14
177
     3
291
     1
 70
    58
 90
        2
176
     1
 90
        2
176
     1
 90
        0
176
     1
 90
        0
176
     1
 40
0.6
176
     1
 40
30.0
176
     1
 62
     7
420
 16777215
176
     1
 90
        1
176
     1
 90
        4
176
     1
 62
     7
176
     1
 62
   257
176
     1
 90
        7
176
     1
 90
        7
176
     1
 40
1.0
176
     1
 90
        8
176
     1
 62
     7
176
     1
 40
1.0
176
     1
 90
        1
176
     1
 90
        6
176
     1
 90
        2
176
     1
 62
     7
176
     1
 90
        5
176
     1
 90
        0
176
     1
 90
        0
176
     1
290
     0
176
     1
 90
        1
176
     1
 40
0.0
176
     1
 90
        0
176
     1
290
     0
176
     1
290
     1
176
     1
290
     1
176
     1
290
     0
176
     1
290
     0
176
     1
290
     0
176
     1
290
     0
176
     1
290
     0
176
     1
290
     0
176
     1
 90
       50
176
     1
 40
0.0
176
     1
 40
1.0
176
     1
 90
        0
176
     1
 62
    18
420
        0
176
     1
 90
       50
176
     1
 90
        3
176
     1
 62
     5
420
      255
176
     1
290
     0
176
     1
 90
       50
176
     1
 90
       50
176
     1
 90
       50
176
     1
290
     0
176
     1
 90
       50
176
     1
 62
   256
176
     0
 40
1.0
176
     0
 90
        2
176
     1
  1
strokes_ogs.tif
176
     1
290
     0
176
     1
 40
1.0
176
     1
 40
1.0
176
     1
  0
VISUALSTYLE
  5
45D7
102
{ACAD_REACTORS
330
45C0
102
}
330
45C0
100
AcDbVisualStyle
  2
OverhangOff
 70
    21
177
     3
291
     1
 70
    58
 90
        2
176
     0
 90
        2
176
     0
 90
        0
176
     0
 90
        0
176
     0
 40
0.6
176
     0
 40
30.0
176
     0
 62
     7
420
 16777215
176
     0
 90
        1
176
     0
 90
        4
176
     0
 62
     7
176
     0
 62
   257
176
     0
 90
        1
176
     0
 90
        1
176
     0
 40
1.0
176
     0
 90
        9
176
     2
 62
     7
176
     0
 40
1.0
176
     0
 90
        1
176
     0
 90
        6
176
     0
 90
        2
176
     0
 62
     7
176
     0
 90
        5
176
     0
 90
        0
176
     0
 90
        0
176
     0
290
     0
176
     0
 90
        1
176
     0
 40
0.0
176
     0
 90
        0
176
     0
290
     0
176
     0
290
     1
176
     0
290
     1
176
     0
290
     0
176
     0
290
     0
176
     0
290
     0
176
     0
290
     0
176
     0
290
     0
176
     0
290
     0
176
     0
 90
       50
176
     0
 40
0.0
176
     0
 40
1.0
176
     0
 90
        0
176
     0
 62
    18
420
        0
176
     0
 90
       50
176
     0
 90
        3
176
     0
 62
     5
420
      255
176
     0
290
     0
176
     0
 90
       50
176
     0
 90
       50
176
     0
 90
       50
176
     0
290
     0
176
     0
 90
       50
176
     0
 62
   256
176
     0
 40
1.0
176
     0
 90
        2
176
     0
  1
strokes_ogs.tif
176
     0
290
     0
176
     0
 40
1.0
176
     0
 40
1.0
176
     0
  0
VISUALSTYLE
  5
45CA
102
{ACAD_REACTORS
330
45C0
102
}
330
45C0
100
AcDbVisualStyle
  2
Realistic
 70
     8
177
     3
291
     0
 70
    58
 90
        2
176
     1
 90
        3
176
     1
 90
        0
176
     1
 90
        2
176
     1
 40
0.6
176
     1
 40
30.0
176
     1
 62
     7
420
 16777215
176
     1
 90
        0
176
     1
 90
        0
176
     1
 62
     7
176
     1
 62
   257
176
     1
 90
        1
176
     1
 90
        1
176
     1
 40
1.0
176
     1
 90
        8
176
     1
 62
   257
176
     1
 40
1.0
176
     1
 90
        1
176
     1
 90
        6
176
     1
 90
        2
176
     1
 62
     7
176
     1
 90
        3
176
     1
 90
        0
176
     1
 90
        0
176
     1
290
     0
176
     1
 90
       13
176
     1
 40
0.0
176
     1
 90
        0
176
     1
290
     0
176
     1
290
     1
176
     1
290
     1
176
     1
290
     0
176
     1
290
     0
176
     1
290
     0
176
     1
290
     0
176
     1
290
     0
176
     1
290
     0
176
     1
 90
       50
176
     1
 40
0.0
176
     1
 40
1.0
176
     1
 90
        0
176
     1
 62
    18
420
        0
176
     1
 90
       50
176
     1
 90
        3
176
     1
 62
     5
420
      255
176
     1
290
     0
176
     1
 90
       50
176
     1
 90
       50
176
     1
 90
       50
176
     1
290
     0
176
     1
 90
       50
176
     1
 62
   256
176
     0
 40
1.0
176
     0
 90
        2
176
     1
  1
strokes_ogs.tif
176
     1
290
     0
176
     1
 40
1.0
176
     1
 40
1.0
176
     1
  0
VISUALSTYLE
  5
45D5
102
{ACAD_REACTORS
330
45C0
102
}
330
45C0
100
AcDbVisualStyle
  2
Shaded
 70
    27
177
     3
291
     0
 70
    58
 90
        2
176
     1
 90
        2
176
     1
 90
        1
176
     1
 90
        2
176
     1
 40
0.6
176
     1
 40
30.0
176
     1
 62
     7
420
 16777215
176
     1
 90
        0
176
     1
 90
        4
176
     1
 62
     7
176
     1
 62
   257
176
     1
 90
        1
176
     1
 90
        1
176
     1
 40
1.0
176
     1
 90
        8
176
     1
 62
   257
176
     1
 40
1.0
176
     1
 90
        1
176
     1
 90
        6
176
     1
 90
        2
176
     1
 62
     8
420
  7895160
176
     1
 90
        3
176
     1
 90
        0
176
     1
 90
        0
176
     1
290
     0
176
     1
 90
        5
176
     1
 40
0.0
176
     1
 90
        0
176
     1
290
     0
176
     1
290
     1
176
     1
290
     1
176
     1
290
     0
176
     1
290
     0
176
     1
290
     0
176
     1
290
     0
176
     1
290
     0
176
     1
290
     0
176
     1
 90
       50
176
     1
 40
0.0
176
     1
 40
1.0
176
     1
 90
        0
176
     1
 62
    18
420
        0
176
     1
 90
       50
176
     1
 90
        3
176
     1
 62
     5
420
      255
176
     1
290
     0
176
     1
 90
       50
176
     1
 90
       50
176
     1
 90
       50
176
     1
290
     0
176
     1
 90
       50
176
     1
 62
   256
176
     0
 40
1.0
176
     0
 90
        2
176
     1
  1
strokes_ogs.tif
176
     1
290
     0
176
     1
 40
1.0
176
     1
 40
1.0
176
     1
  0
VISUALSTYLE
  5
45D4
102
{ACAD_REACTORS
330
45C0
102
}
330
45C0
100
AcDbVisualStyle
  2
Shaded with edges
 70
    26
177
     3
291
     0
 70
    58
 90
        2
176
     1
 90
        2
176
     1
 90
        1
176
     1
 90
        2
176
     1
 40
0.6
176
     1
 40
30.0
176
     1
 62
     7
420
 16777215
176
     1
 90
        1
176
     1
 90
        2
176
     1
 62
     7
176
     1
 62
   257
176
     1
 90
        2
176
     1
 90
        1
176
     1
 40
1.0
176
     1
 90
        8
176
     1
 62
   257
176
     1
 40
1.0
176
     1
 90
        1
176
     1
 90
        6
176
     1
 90
        2
176
     1
 62
     7
176
     1
 90
        3
176
     1
 90
        0
176
     1
 90
        0
176
     1
290
     0
176
     1
 90
        5
176
     1
 40
0.0
176
     1
 90
        0
176
     1
290
     0
176
     1
290
     1
176
     1
290
     1
176
     1
290
     0
176
     1
290
     0
176
     1
290
     0
176
     1
290
     0
176
     1
290
     0
176
     1
290
     0
176
     1
 90
       50
176
     1
 40
0.0
176
     1
 40
1.0
176
     1
 90
        0
176
     1
 62
    18
420
        0
176
     1
 90
       50
176
     1
 90
        3
176
     1
 62
     5
420
      255
176
     1
290
     0
176
     1
 90
       50
176
     1
 90
       50
176
     1
 90
       50
176
     1
290
     0
176
     1
 90
       50
176
     1
 62
   256
176
     0
 40
1.0
176
     0
 90
        2
176
     1
  1
strokes_ogs.tif
176
     1
290
     0
176
     1
 40
1.0
176
     1
 40
1.0
176
     1
  0
VISUALSTYLE
  5
45D1
102
{ACAD_REACTORS
330
45C0
102
}
330
45C0
100
AcDbVisualStyle
  2
Shades of Gray
 70
    23
177
     3
291
     0
 70
    58
 90
        2
176
     1
 90
        2
176
     1
 90
        3
176
     1
 90
        0
176
     1
 40
0.6
176
     1
 40
30.0
176
     1
 62
     7
420
 16777215
176
     1
 90
        2
176
     1
 90
        2
176
     1
 62
     7
176
     1
 62
     7
176
     1
 90
        1
176
     1
 90
        1
176
     1
 40
40.0
176
     1
 90
        8
176
     1
 62
     7
176
     1
 40
1.0
176
     1
 90
        1
176
     1
 90
        6
176
     1
 90
        2
176
     1
 62
     7
176
     1
 90
        3
176
     1
 90
        0
176
     1
 90
        0
176
     1
290
     0
176
     1
 90
        1
176
     1
 40
0.0
176
     1
 90
        0
176
     1
290
     0
176
     1
290
     1
176
     1
290
     1
176
     1
290
     0
176
     1
290
     0
176
     1
290
     0
176
     1
290
     0
176
     1
290
     0
176
     1
290
     0
176
     1
 90
       50
176
     1
 40
0.0
176
     1
 40
1.0
176
     1
 90
        0
176
     1
 62
    18
420
        0
176
     1
 90
       50
176
     1
 90
        3
176
     1
 62
     5
420
      255
176
     1
290
     0
176
     1
 90
       50
176
     1
 90
       50
176
     1
 90
       50
176
     1
290
     0
176
     1
 90
       50
176
     1
 62
   256
176
     0
 40
1.0
176
     0
 90
        2
176
     1
  1
strokes_ogs.tif
176
     1
290
     0
176
     1
 40
1.0
176
     1
 40
1.0
176
     1
  0
VISUALSTYLE
  5
45D2
102
{ACAD_REACTORS
330
45C0
102
}
330
45C0
100
AcDbVisualStyle
  2
Sketchy
 70
    24
177
     3
291
     0
 70
    58
 90
        1
176
     1
 90
        2
176
     1
 90
        2
176
     1
 90
        0
176
     1
 40
0.6
176
     1
 40
30.0
176
     1
 62
     7
420
 16777215
176
     1
 90
        2
176
     1
 90
        2
176
     1
 62
     7
176
     1
 62
     7
176
     1
 90
        1
176
     1
 90
        1
176
     1
 40
40.0
176
     1
 90
       11
176
     1
 62
     7
176
     1
 40
1.0
176
     1
 90
        1
176
     1
 90
        6
176
     1
 90
        2
176
     1
 62
     7
176
     1
 90
        6
176
     1
 90
        0
176
     1
 90
        0
176
     1
290
     0
176
     1
 90
        1
176
     1
 40
0.0
176
     1
 90
        0
176
     1
290
     0
176
     1
290
     1
176
     1
290
     1
176
     1
290
     0
176
     1
290
     0
176
     1
290
     0
176
     1
290
     0
176
     1
290
     0
176
     1
290
     0
176
     1
 90
       50
176
     1
 40
0.0
176
     1
 40
1.0
176
     1
 90
        0
176
     1
 62
    18
420
        0
176
     1
 90
       50
176
     1
 90
        3
176
     1
 62
     5
420
      255
176
     1
290
     0
176
     1
 90
       50
176
     1
 90
       50
176
     1
 90
       50
176
     1
290
     0
176
     1
 90
       50
176
     1
 62
   256
176
     0
 40
1.0
176
     0
 90
        2
176
     1
  1
strokes_ogs.tif
176
     1
290
     0
176
     1
 40
1.0
176
     1
 40
1.0
176
     1
  0
VISUALSTYLE
  5
45CD
102
{ACAD_REACTORS
330
45C0
102
}
330
45C0
100
AcDbVisualStyle
  2
Thicken
 70
    13
177
     3
291
     1
 70
    58
 90
        2
176
     1
 90
        2
176
     1
 90
        0
176
     1
 90
        0
176
     1
 40
0.6
176
     1
 40
30.0
176
     1
 62
     7
420
 16777215
176
     1
 90
        1
176
     1
 90
        4
176
     1
 62
     7
176
     1
 62
   257
176
     1
 90
        1
176
     1
 90
        1
176
     1
 40
1.0
176
     1
 90
       12
176
     1
 62
     7
176
     1
 40
1.0
176
     1
 90
        1
176
     1
 90
        6
176
     1
 90
        2
176
     1
 62
     7
176
     1
 90
        5
176
     1
 90
        0
176
     1
 90
        0
176
     1
290
     0
176
     1
 90
        1
176
     1
 40
0.0
176
     1
 90
        0
176
     1
290
     0
176
     1
290
     1
176
     1
290
     1
176
     1
290
     0
176
     1
290
     0
176
     1
290
     0
176
     1
290
     0
176
     1
290
     0
176
     1
290
     0
176
     1
 90
       50
176
     1
 40
0.0
176
     1
 40
1.0
176
     1
 90
        0
176
     1
 62
    18
420
        0
176
     1
 90
       50
176
     1
 90
        3
176
     1
 62
     5
420
      255
176
     1
290
     0
176
     1
 90
       50
176
     1
 90
       50
176
     1
 90
       50
176
     1
290
     0
176
     1
 90
       50
176
     1
 62
   256
176
     0
 40
1.0
176
     0
 90
        2
176
     1
  1
strokes_ogs.tif
176
     1
290
     0
176
     1
 40
1.0
176
     1
 40
1.0
176
     1
  0
VISUALSTYLE
  5
45C7
102
{ACAD_REACTORS
330
45C0
102
}
330
45C0
100
AcDbVisualStyle
  2
Wireframe
 70
     5
177
     3
291
     0
 70
    58
 90
        0
176
     1
 90
        2
176
     1
 90
        0
176
     1
 90
        0
176
     1
 40
0.6
176
     1
 40
30.0
176
     1
 62
     7
420
 16777215
176
     1
 90
        1
176
     1
 90
        4
176
     1
 62
     7
176
     1
 62
   257
176
     1
 90
        1
176
     1
 90
        1
176
     1
 40
1.0
176
     1
 90
        0
176
     1
 62
   257
176
     1
 40
1.0
176
     1
 90
        1
176
     1
 90
        6
176
     1
 90
        2
176
     1
 62
     7
176
     1
 90
        3
176
     1
 90
        0
176
     1
 90
        0
176
     1
290
     0
176
     1
 90
        1
176
     1
 40
0.0
176
     1
 90
        0
176
     1
290
     0
176
     1
290
     1
176
     1
290
     1
176
     1
290
     0
176
     1
290
     0
176
     1
290
     0
176
     1
290
     0
176
     1
290
     0
176
     1
290
     0
176
     1
 90
       50
176
     1
 40
0.0
176
     1
 40
1.0
176
     1
 90
        0
176
     1
 62
    18
420
        0
176
     1
 90
       50
176
     1
 90
        3
176
     1
 62
     5
420
      255
176
     1
290
     0
176
     1
 90
       50
176
     1
 90
       50
176
     1
 90
       50
176
     1
290
     0
176
     1
 90
       50
176
     1
 62
   256
176
     0
 40
1.0
176
     0
 90
        2
176
     1
  1
strokes_ogs.tif
176
     1
290
     0
176
     1
 40
1.0
176
     1
 40
1.0
176
     1
  0
VISUALSTYLE
  5
45D3
102
{ACAD_REACTORS
330
45C0
102
}
330
45C0
100
AcDbVisualStyle
  2
X-Ray
 70
    25
177
     3
291
     0
 70
    58
 90
        2
176
     1
 90
        2
176
     1
 90
        1
176
     1
 90
        1
176
     1
 40
0.5
176
     1
 40
30.0
176
     1
 62
     7
420
 16777215
176
     1
 90
        1
176
     1
 90
        0
176
     1
 62
     7
176
     1
 62
   257
176
     1
 90
        1
176
     1
 90
        1
176
     1
 40
1.0
176
     1
 90
        8
176
     1
 62
     7
176
     1
 40
1.0
176
     1
 90
        1
176
     1
 90
        6
176
     1
 90
        2
176
     1
 62
     7
176
     1
 90
        3
176
     1
 90
        0
176
     1
 90
        0
176
     1
290
     0
176
     1
 90
       13
176
     1
 40
0.0
176
     1
 90
        0
176
     1
290
     0
176
     1
290
     1
176
     1
290
     1
176
     1
290
     0
176
     1
290
     0
176
     1
290
     0
176
     1
290
     0
176
     1
290
     0
176
     1
290
     0
176
     1
 90
       50
176
     1
 40
0.0
176
     1
 40
1.0
176
     1
 90
        0
176
     1
 62
    18
420
        0
176
     1
 90
       50
176
     1
 90
        3
176
     1
 62
     5
420
      255
176
     1
290
     0
176
     1
 90
       50
176
     1
 90
       50
176
     1
 90
       50
176
     1
290
     0
176
     1
 90
       50
176
     1
 62
   256
176
     0
 40
1.0
176
     0
 90
        2
176
     1
  1
strokes_ogs.tif
176
     1
290
     0
176
     1
 40
1.0
176
     1
 40
1.0
176
     1
  0
DICTIONARYVAR
  5
47C1
102
{ACAD_REACTORS
330
51
102
}
330
51
100
DictionaryVariables
280
     0
  1
1:1
  0
DICTIONARYVAR
  5
47BD
102
{ACAD_REACTORS
330
51
102
}
330
51
100
DictionaryVariables
280
     0
  1
STANDARD
  0
DICTIONARYVAR
  5
47BC
102
{ACAD_REACTORS
330
51
102
}
330
51
100
DictionaryVariables
280
     0
  1
STANDARD
  0
DICTIONARYVAR
  5
47BE
102
{ACAD_REACTORS
330
51
102
}
330
51
100
DictionaryVariables
280
     0
  1
Metric50
  0
DICTIONARYVAR
  5
47BF
102
{ACAD_REACTORS
330
51
102
}
330
51
100
DictionaryVariables
280
     0
  1
Metric50
  0
DICTIONARYVAR
  5
52
102
{ACAD_REACTORS
330
51
102
}
330
51
100
DictionaryVariables
280
     0
  1
0
  0
DICTIONARYVAR
  5
47C3
102
{ACAD_REACTORS
330
51
102
}
330
51
100
DictionaryVariables
280
     0
  1
1
  0
DICTIONARYVAR
  5
47C4
102
{ACAD_REACTORS
330
51
102
}
330
51
100
DictionaryVariables
280
     0
  1
15
  0
DICTIONARYVAR
  5
47C2
102
{ACAD_REACTORS
330
51
102
}
330
51
100
DictionaryVariables
280
     0
  1
0
  0
DICTIONARYVAR
  5
47C0
102
{ACAD_REACTORS
330
51
102
}
330
51
100
DictionaryVariables
280
     0
  1
0
  0
DICTIONARY
  5
45B1
330
45B0
100
AcDbDictionary
280
     1
281
     1
  3
BUMPTILE
360
45B3
  3
DIFFUSETILE
360
45B2
  3
OPACITYTILE
360
45B6
  3
REFLECTIONTILE
360
45B5
  3
REFRACTIONTILE
360
45B7
  3
SPECULARTILE
360
45B4
  0
DICTIONARY
  5
45A9
330
45A8
100
AcDbDictionary
280
     1
281
     1
  3
BUMPTILE
360
45AB
  3
DIFFUSETILE
360
45AA
  3
OPACITYTILE
360
45AE
  3
REFLECTIONTILE
360
45AD
  3
REFRACTIONTILE
360
45AF
  3
SPECULARTILE
360
45AC
  0
DICTIONARY
  5
45B9
330
45B8
100
AcDbDictionary
280
     1
281
     1
  3
BUMPTILE
360
45BB
  3
DIFFUSETILE
360
45BA
  3
OPACITYTILE
360
45BE
  3
REFLECTIONTILE
360
45BD
  3
REFRACTIONTILE
360
45BF
  3
SPECULARTILE
360
45BC
  0
DICTIONARY
  5
47C5
330
45DC
100
AcDbDictionary
280
     1
281
     1
  3
ACAD_ROUNDTRIP_2008_TABLESTYLE_CELLSTYLEMAP
360
47C6
  0
XRECORD
  5
45B3
102
{ACAD_REACTORS
330
45B1
102
}
330
45B1
100
AcDbXrecord
280
     1
270
     1
271
     1
  0
XRECORD
  5
45B2
102
{ACAD_REACTORS
330
45B1
102
}
330
45B1
100
AcDbXrecord
280
     1
270
     1
271
     1
  0
XRECORD
  5
45B6
102
{ACAD_REACTORS
330
45B1
102
}
330
45B1
100
AcDbXrecord
280
     1
270
     1
271
     1
  0
XRECORD
  5
45B5
102
{ACAD_REACTORS
330
45B1
102
}
330
45B1
100
AcDbXrecord
280
     1
270
     1
271
     1
  0
XRECORD
  5
45B7
102
{ACAD_REACTORS
330
45B1
102
}
330
45B1
100
AcDbXrecord
280
     1
270
     1
271
     1
  0
XRECORD
  5
45B4
102
{ACAD_REACTORS
330
45B1
102
}
330
45B1
100
AcDbXrecord
280
     1
270
     1
271
     1
  0
XRECORD
  5
45AB
102
{ACAD_REACTORS
330
45A9
102
}
330
45A9
100
AcDbXrecord
280
     1
270
     1
271
     1
  0
XRECORD
  5
45AA
102
{ACAD_REACTORS
330
45A9
102
}
330
45A9
100
AcDbXrecord
280
     1
270
     1
271
     1
  0
XRECORD
  5
45AE
102
{ACAD_REACTORS
330
45A9
102
}
330
45A9
100
AcDbXrecord
280
     1
270
     1
271
     1
  0
XRECORD
  5
45AD
102
{ACAD_REACTORS
330
45A9
102
}
330
45A9
100
AcDbXrecord
280
     1
270
     1
271
     1
  0
XRECORD
  5
45AF
102
{ACAD_REACTORS
330
45A9
102
}
330
45A9
100
AcDbXrecord
280
     1
270
     1
271
     1
  0
XRECORD
  5
45AC
102
{ACAD_REACTORS
330
45A9
102
}
330
45A9
100
AcDbXrecord
280
     1
270
     1
271
     1
  0
XRECORD
  5
45BB
102
{ACAD_REACTORS
330
45B9
102
}
330
45B9
100
AcDbXrecord
280
     1
270
     1
271
     1
  0
XRECORD
  5
45BA
102
{ACAD_REACTORS
330
45B9
102
}
330
45B9
100
AcDbXrecord
280
     1
270
     1
271
     1
  0
XRECORD
  5
45BE
102
{ACAD_REACTORS
330
45B9
102
}
330
45B9
100
AcDbXrecord
280
     1
270
     1
271
     1
  0
XRECORD
  5
45BD
102
{ACAD_REACTORS
330
45B9
102
}
330
45B9
100
AcDbXrecord
280
     1
270
     1
271
     1
  0
XRECORD
  5
45BF
102
{ACAD_REACTORS
330
45B9
102
}
330
45B9
100
AcDbXrecord
280
     1
270
     1
271
     1
  0
XRECORD
  5
45BC
102
{ACAD_REACTORS
330
45B9
102
}
330
45B9
100
AcDbXrecord
280
     1
270
     1
271
     1
  0
CELLSTYLEMAP
  5
47C6
102
{ACAD_REACTORS
330
47C5
102
}
330
47C5
100
AcDbCellStyleMap
 90
        3
300
CELLSTYLE
  1
TABLEFORMAT_BEGIN
 90
        5
170
     1
 91
        0
 92
    32768
 62
   257
 93
        1
300
CONTENTFORMAT
  1
CONTENTFORMAT_BEGIN
 90
        0
 91
        0
 92
      512
 93
        0
300

 40
0.0
140
1.0
 94
        5
 62
     0
340
F
144
6.0
309
CONTENTFORMAT_END
171
     1
301
MARGIN
  1
CELLMARGIN_BEGIN
 40
1.5
 40
1.5
 40
1.5
 40
1.5
 40
4.5
 40
4.5
309
CELLMARGIN_END
 94
        6
 95
        1
302
GRIDFORMAT
  1
GRIDFORMAT_BEGIN
 90
        0
 91
        1
 62
     0
 92
       -2
340
0
 93
        0
 40
1.125
309
GRIDFORMAT_END
 95
        2
302
GRIDFORMAT
  1
GRIDFORMAT_BEGIN
 90
        0
 91
        1
 62
     0
 92
       -2
340
0
 93
        0
 40
1.125
309
GRIDFORMAT_END
 95
        4
302
GRIDFORMAT
  1
GRIDFORMAT_BEGIN
 90
        0
 91
        1
 62
     0
 92
       -2
340
0
 93
        0
 40
1.125
309
GRIDFORMAT_END
 95
        8
302
GRIDFORMAT
  1
GRIDFORMAT_BEGIN
 90
        0
 91
        1
 62
     0
 92
       -2
340
0
 93
        0
 40
1.125
309
GRIDFORMAT_END
 95
       16
302
GRIDFORMAT
  1
GRIDFORMAT_BEGIN
 90
        0
 91
        1
 62
     0
 92
       -2
340
0
 93
        0
 40
1.125
309
GRIDFORMAT_END
 95
       32
302
GRIDFORMAT
  1
GRIDFORMAT_BEGIN
 90
        0
 91
        1
 62
     0
 92
       -2
340
0
 93
        0
 40
1.125
309
GRIDFORMAT_END
309
TABLEFORMAT_END
  1
CELLSTYLE_BEGIN
 90
        1
 91
        1
300
_TITLE
309
CELLSTYLE_END
300
CELLSTYLE
  1
TABLEFORMAT_BEGIN
 90
        5
170
     1
 91
        0
 92
        0
 62
   257
 93
        1
300
CONTENTFORMAT
  1
CONTENTFORMAT_BEGIN
 90
        0
 91
        0
 92
      512
 93
        0
300

 40
0.0
140
1.0
 94
        5
 62
     0
340
F
144
4.5
309
CONTENTFORMAT_END
171
     1
301
MARGIN
  1
CELLMARGIN_BEGIN
 40
1.5
 40
1.5
 40
1.5
 40
1.5
 40
4.5
 40
4.5
309
CELLMARGIN_END
 94
        6
 95
        1
302
GRIDFORMAT
  1
GRIDFORMAT_BEGIN
 90
        0
 91
        1
 62
     0
 92
       -2
340
0
 93
        0
 40
1.125
309
GRIDFORMAT_END
 95
        2
302
GRIDFORMAT
  1
GRIDFORMAT_BEGIN
 90
        0
 91
        1
 62
     0
 92
       -2
340
0
 93
        0
 40
1.125
309
GRIDFORMAT_END
 95
        4
302
GRIDFORMAT
  1
GRIDFORMAT_BEGIN
 90
        0
 91
        1
 62
     0
 92
       -2
340
0
 93
        0
 40
1.125
309
GRIDFORMAT_END
 95
        8
302
GRIDFORMAT
  1
GRIDFORMAT_BEGIN
 90
        0
 91
        1
 62
     0
 92
       -2
340
0
 93
        0
 40
1.125
309
GRIDFORMAT_END
 95
       16
302
GRIDFORMAT
  1
GRIDFORMAT_BEGIN
 90
        0
 91
        1
 62
     0
 92
       -2
340
0
 93
        0
 40
1.125
309
GRIDFORMAT_END
 95
       32
302
GRIDFORMAT
  1
GRIDFORMAT_BEGIN
 90
        0
 91
        1
 62
     0
 92
       -2
340
0
 93
        0
 40
1.125
309
GRIDFORMAT_END
309
TABLEFORMAT_END
  1
CELLSTYLE_BEGIN
 90
        2
 91
        1
300
_HEADER
309
CELLSTYLE_END
300
CELLSTYLE
  1
TABLEFORMAT_BEGIN
 90
        5
170
     1
 91
        0
 92
        0
 62
   257
 93
        1
300
CONTENTFORMAT
  1
CONTENTFORMAT_BEGIN
 90
        0
 91
        0
 92
      512
 93
        0
300

 40
0.0
140
1.0
 94
        2
 62
     0
340
F
144
4.5
309
CONTENTFORMAT_END
171
     1
301
MARGIN
  1
CELLMARGIN_BEGIN
 40
1.5
 40
1.5
 40
1.5
 40
1.5
 40
4.5
 40
4.5
309
CELLMARGIN_END
 94
        6
 95
        1
302
GRIDFORMAT
  1
GRIDFORMAT_BEGIN
 90
        0
 91
        1
 62
     0
 92
       -2
340
0
 93
        0
 40
1.125
309
GRIDFORMAT_END
 95
        2
302
GRIDFORMAT
  1
GRIDFORMAT_BEGIN
 90
        0
 91
        1
 62
     0
 92
       -2
340
0
 93
        0
 40
1.125
309
GRIDFORMAT_END
 95
        4
302
GRIDFORMAT
  1
GRIDFORMAT_BEGIN
 90
        0
 91
        1
 62
     0
 92
       -2
340
0
 93
        0
 40
1.125
309
GRIDFORMAT_END
 95
        8
302
GRIDFORMAT
  1
GRIDFORMAT_BEGIN
 90
        0
 91
        1
 62
     0
 92
       -2
340
0
 93
        0
 40
1.125
309
GRIDFORMAT_END
 95
       16
302
GRIDFORMAT
  1
GRIDFORMAT_BEGIN
 90
        0
 91
        1
 62
     0
 92
       -2
340
0
 93
        0
 40
1.125
309
GRIDFORMAT_END
 95
       32
302
GRIDFORMAT
  1
GRIDFORMAT_BEGIN
 90
        0
 91
        1
 62
     0
 92
       -2
340
0
 93
        0
 40
1.125
309
GRIDFORMAT_END
309
TABLEFORMAT_END
  1
CELLSTYLE_BEGIN
 90
        3
 91
        2
300
_DATA
309
CELLSTYLE_END
  0
ENDSEC
  0
SECTION
  2
ACDSDATA
 70
     2
 71
     8
  0
ACDSSCHEMA
 90
        0
  1
AcDb_Thumbnail_Schema
  2
AcDbDs::ID
280
    10
 91
        8
  2
Thumbnail_Data
280
    15
 91
        0
101
ACDSRECORD
 95
        0
 90
        1
  2
AcDbDs::TreatedAsObjectData
280
     1
291
     1
101
ACDSRECORD
 95
        0
 90
        2
  2
AcDbDs::Legacy
280
     1
291
     1
101
ACDSRECORD
  1
AcDbDs::ID
 90
        3
  2
AcDs:Indexable
280
     1
291
     1
101
ACDSRECORD
  1
AcDbDs::ID
 90
        4
  2
AcDbDs::HandleAttribute
280
     7
282
     1
  0
ACDSSCHEMA
 90
        1
  1
AcDbDs::TreatedAsObjectDataSchema
  2
AcDbDs::TreatedAsObjectData
280
     1
 91
        0
  0
ACDSSCHEMA
 90
        2
  1
AcDbDs::LegacySchema
  2
AcDbDs::Legacy
280
     1
 91
        0
  0
ACDSSCHEMA
 90
        3
  1
AcDbDs::IndexedPropertySchema
  2
AcDs:Indexable
280
     1
 91
        0
  0
ACDSSCHEMA
 90
        4
  1
AcDbDs::HandleAttributeSchema
  2
AcDbDs::HandleAttribute
280
     7
 91
        1
284
     1
  0
ACDSRECORD
 90
        0
  2
AcDbDs::ID
280
    10
320
45F6
  2
Thumbnail_Data
280
    15
 94
     1777
310
89504E470D0A1A0A0000000D4948445200000100000000770803000000DBFC6E9900000300504C5445000000FFFFFF0000000000000000000000000000000000000000000000000000000000330000660000990000CC0000FF0033000033330033660033990033CC0033FF0066000066330066660066990066CC0066FF0099
310
000099330099660099990099CC0099FF00CC0000CC3300CC6600CC9900CCCC00CCFF00FF0000FF3300FF6600FF9900FFCC00FFFF3300003300333300663300993300CC3300FF3333003333333333663333993333CC3333FF3366003366333366663366993366CC3366FF3399003399333399663399993399CC3399FF33CC00
310
33CC3333CC6633CC9933CCCC33CCFF33FF0033FF3333FF6633FF9933FFCC33FFFF6600006600336600666600996600CC6600FF6633006633336633666633996633CC6633FF6666006666336666666666996666CC6666FF6699006699336699666699996699CC6699FF66CC0066CC3366CC6666CC9966CCCC66CCFF66FF0066
310
FF3366FF6666FF9966FFCC66FFFF9900009900339900669900999900CC9900FF9933009933339933669933999933CC9933FF9966009966339966669966999966CC9966FF9999009999339999669999999999CC9999FF99CC0099CC3399CC6699CC9999CCCC99CCFF99FF0099FF3399FF6699FF9999FFCC99FFFFCC0000CC00
310
33CC0066CC0099CC00CCCC00FFCC3300CC3333CC3366CC3399CC33CCCC33FFCC6600CC6633CC6666CC6699CC66CCCC66FFCC9900CC9933CC9966CC9999CC99CCCC99FFCCCC00CCCC33CCCC66CCCC99CCCCCCCCCCFFCCFF00CCFF33CCFF66CCFF99CCFFCCCCFFFFFF0000FF0033FF0066FF0099FF00CCFF00FFFF3300FF3333
310
FF3366FF3399FF33CCFF33FFFF6600FF6633FF6666FF6699FF66CCFF66FFFF9900FF9933FF9966FF9999FF99CCFF99FFFFCC00FFCC33FFCC66FFCC99FFCCCCFFCCFFFFFF00FFFF33FFFF66FFFF99FFFFCCFFFFFF0000000D0D0D1A1A1A2828283535354343435050505D5D5D6B6B6B787878868686939393A1A1A1AEAEAEBB
310
BBBBC9C9C9D6D6D6E4E4E4F1F1F1FFFFFF0000000000000000000000000000000000000000000000000000000000003AE5ACE9000003AC4944415478DAED9C5976E4200C45598E7EBCFF05641B2C26651BDB4C02C90305E5F7D2C7271F81A06B4D28491B0341100441100441100441100441100441102BFB5D750260E3205F
310
B52C3097ADB81FC05F41D6CECFAC29CE18CDC16F798DCD3CC012D17AD42C80FD95AA002CFE630601B088B200BE79F0FB0190A7F085D1FCB618002450E6E074460D014C7E00B818B07900CB3F93796E9F4627B7865B76669FA700D82004CA00967743FBD3244FDE039805CC6ED42E074CD64E7EB5FA00A17C085889EBDAE4E0
310
B6EF10B087DBD7002C1E60BC0F32DB938C7B721EC02E08772BEEF3D4FB8F785BC3023027DF5C871EB039C2E400F89D0AD307FC6419FC989A94C295C3AF0370FEBF25E1BB015857CFEC65C3E9590066071077AA571AA183E9B54628DEE7D61098CD9FB696630610DF96984648B2F15A5A8246E8D4019F04F0F906B3FD260801
310
FFE2760DC05ACE2E0330E13E37DF7A8EA6530E80DA0278D003EC27011E5DB714C0F68585CABD8540008054ED000BF2EE2440B107547380D9EDCF5656CF754D70F0D232CD3E37E77F436A00BB299CD732072F2DCB13781E80335F09608B672A028842A0BC8C4B800F87808B0207604D89FEF48E6D847853A814BB1A02D4A20C
310
BA0CB8CF40A41E5030A5084043801A94C19D805103604D2985808A40AB1098BF853D018033A596BDC5045A24C12DD6F729A00600634AC503E4041A7AC03AB8CF3840E536983585AA0D8C9040BB1C7024FEA8114C5D42604AD503A4045A5481DC0F1F350072A6D43D4048A0A507F0506A03112A01B0ECC125045AE60016407D
310
22941090F5F002022DAAC0750F4809883C4042A00B0F1000F0EE6DE21C2022D02207E47F2F40150281CD1A005502CDEE02CA86A1464018027502DF0A813300921FF5CA925799C0B792E029001E01CD24A748602C00BEDDD210A810182A043CC3C54950325AFA4627781680B39C48F7E6CAA3A551AA4040401302B5D1D24821
310
90B483D2E4551A2D0D94044DD20E8A0F5E182D8D062068078521501C2D0D1602A12D8A83B3A3A5B192607439D4BC396EB4345419D45E8624A3A5F142C0F75895EBA604864C82F9AF16ADA27C291DCF034EAFA26C291D2F079C5F4599523A5E15B8B28AD252FA2A0F8808F499031EFE6B2FCA0C17BAAA028FFB4DE2FE9D79C0
310
F381B313A02E734083CC7110E8B10AB4489D74A5A5FE0500693BFCA6247861B2F44300A276F87521904C965E9604D37EE0851E108ED75F09C034F99399AEAF50070A7BCF3EC302B87D1F0000000018628CD2E37FA30341100441100441100441100441100441D0A8FA07B0D8D3CAEA5CCF130000000049454E44AE426082
  0
ENDSEC
  0
EOF
